找回密码

蓝光电影网

查看: 151|回复: 1

[剧情] 锅盖头2[中文字幕].Jarhead.2.Field.of.Fire.2014.BluRay.1080p.x265.10bit-MiniHD 4.51GB

[复制链接]
蓝光币
8
发表于 2022-7-27 02:17:42 | 显示全部楼层 |阅读模式


◎标  题 锅盖头2
◎译  名 锅盖头2:烽火之地 / 锅盖头2:雷霆救济
◎片  名 Jarhead 2: Field of Fire
◎年  代 2014
◎产  地 美国
◎类  别 行动
◎语  言 英语
◎上映日期 2014-08-19
◎IMDb评分 5.5/10 (5526人评价)
◎IMDb链接 https://www.imdb.com/title/tt3699508/
◎豆瓣评分 5.8/10 (3857人评价)
◎豆瓣链接 https://movie.douban.com/subject/25884461/
◎片  长 103分钟
◎导  演 唐·迈克尔·保罗 Don Michael Paul
◎编  剧 伯克利·安德森 Berkeley Anderson
       艾利斯·布莱克 Ellis Black
◎演  员 杰森·王 Jason Wong
       阿姆尔·艾尔-贝尤明 Amr El-Bayoumi
       杰西·加西亚 Jess Garcia
       科尔·豪瑟 Cole Hauser
       乔什·凯利 Josh Kelly
       史蒂芬·朗 Stephen Lang
       埃塞·莫拉雷斯 Esai Morales
       查德·芒廷 Chad Mountain
       拉里特萨·帕斯卡莱瓦 Ralitsa Paskaleva
       丹尼尔·萨夫雷 Danielle Savre
       博基姆·伍德拜因 Bokeem Woodbine
◎标  签 战争 / 美国 / 水兵陆战队 / 阿富汗 / 行动 / 2014 / 人性 / 主旋律
◎简  介
    身经百战的克里斯下士(Josh Kelly 饰)提升为小队的批示官,该小队的下一个使命是给位于塔利班控制边沿地域的火线哨所供给补给。当车队行经敌对的赫尔德曼省时,他们碰到了追求帮助的海豹突击队,双方将合作完成一项重要使命——护送一位因抵挡塔利班而著名的妇女逃离该国...                                                                      没有坦克装甲车和空中支援,克里斯下士和他的团队必须鼓足全数勇气,拼尽一切弹药,横穿这个被战争践踏的国家,直至护送该妇女到平安地址
  1. ##### MediaInfo ######
  2. General
  3. Unique ID                                : 34517534372461096184212911994946661637 (0x19F7D5D693B08EA8DCEA88082C172D05)
  4. Complete name                            : Jarhead.2.Field.of.Fire.2014.BluRay.1080p.x265.10bit-MiniHD.mkv
  5. Format                                   : Matroska
  6. Format version                           : Version 4
  7. File size                                : 4.51 GiB
  8. Duration                                 : 1 h 42 min
  9. Overall bit rate                         : 6 290 kb/s
  10. Encoded date                             : UTC 2021-03-12 01:10:38
  11. Writing application                      : mkvmerge v55.0.0 ('Waiting For Space') 64-bit
  12. Writing library                          : libebml v1.4.2 + libmatroska v1.6.4
  13. Video
  14. ID                                       : 1
  15. Format                                   : HEVC
  16. Format/Info                              : High Efficiency Video Coding
  17. Format profile                           : Main [email protected]@Main
  18. Codec ID                                 : V_MPEGH/ISO/HEVC
  19. Duration                                 : 1 h 42 min
  20. Bit rate                                 : 5 628 kb/s
  21. Width                                    : 1 920 pixels
  22. Height                                   : 800 pixels
  23. Display aspect ratio                     : 2.40:1
  24. Frame rate mode                          : Constant
  25. Frame rate                               : 23.976 (24000/1001/53875) FPS
  26. Color space                              : YUV
  27. Chroma subsampling                       : 4:2:0
  28. Bit depth                                : 10 bits
  29. Bits/(Pixel*Frame)                       : 0.153
  30. Stream size                              : 4.03 GiB (89%)
  31. Writing library                          : x265 3.4+13-g729a838d3+38:[Windows][GCC 10.2.0][64 bit] Asuna 10bit+8bit+12bit
  32. Encoding settings                        : rc=crf / crf=19.0000 / qcomp=0.70 / qpstep=4 / stats-write=0 / stats-read=0 / no-lossless / no-cu-lossless / aq-mode=2 / aq-strength=0.80 / cbqpoffs=-2 / crqpoffs=-2 / ipratio=1.40 / pbratio=1.30 / psy-rd=0.00 / psy-rdoq=5.00 / deblock=-1:-1 / ref=5 / limit-refs=2 / limit-modes / bframes=8 / b-adapt=2 / bframe-bias=0 / b-pyramid / b-intra / weightp / weightb / min-keyint=1 / max-keyint=360 / rc-lookahead=60 / gop-lookahead=0 / NTM4NzU=uuDQuD2mJt9fsCf / scenecut=40 / hist-scenecut=0 / radl=0 / max-cu-size=32 / min-cu-size=8 / me=3 / subme=5 / merange=25 / rdoq-level=1 / rd=4 / rdpenalty=1 / dynamic-rd=0.00 / no-rd-refine / ----- / cutree / no-sao / rect / no-amp / no-open-gop / wpp / no-pmode / no-pme / no-psnr / no-ssim / nr-intra=0 / nr-inter=0 / no-constrained-intra / no-strong-intra-smoothing / max-tu-size=16 / tu-inter-depth=2 / tu-intra-depth=2 / limit-tu=0 / qg-size=16 / qpmax=69 / qpmin=0 / ----- / cpuid=538751111039 / frame-threads=2 / numa-pools=4 / log-level=2 / input-csp=1 / input-res=1920x800 / interlace=0 / level-idc=0 / high-tier=1 / uhd-bd=0 / no-allow-non-conformance / no-repeat-headers / no-aud / no-hrd / info / hash=0 / no-temporal-layers / lookahead-slices=0 / no-splice / no-intra-refresh / ssim-rd / signhide / no-tskip / max-merge=5 / temporal-mvp / no-frame-dup / no-hme / no-analyze-src-pics / no-sao-non-deblock / selective-sao=0 / no-early-skip / rskip / no-fast-intra / no-tskip-fast / no-splitrd-skip / zone-count=0 / no-strict-cbr / no-rc-grain / no-const-vbv / sar=1 / overscan=0 / videoformat=5 / range=0 / colorprim=1 / transfer=2 / colormatrix=2 / chromaloc=0 / display-window=0 / cll=0,0 / min-luma=0 / max-luma=1023 / log2-max-poc-lsb=8 / vui-timing-info / vui-hrd-info / slices=1 / no-opt-qp-pps / no-opt-ref-list-length-pps / no-multi-pass-opt-rps / scenecut-bias=0.05 / hist-threshold=0.01 / no-opt-cu-delta-qp / no-aq-motion / no-hdr10 / no-hdr10-opt / no-dhdr10-opt / no-idr-recovery-sei / analysis-reuse-level=0 / analysis-save-reuse-level=0 / analysis-load-reuse-level=0 / scale-factor=0 / refine-intra=0 / refine-inter=0 / refine-mv=1 / refine-ctu-distortion=0 / no-limit-sao / ctu-info=0 / no-lowpass-dct / refine-analysis-type=0 / copy-pic=1 / max-ausize-factor=1.0 / no-dynamic-refine / no-single-sei / no-hevc-aq / no-svt / no-field / qp-adaptation-range=1.00 / no-scenecut-aware-qpconformance-window-offsets / right=0 / bottom=0 / NTM4NzU= / decoder-max-rate=0
  33. Default                                  : Yes
  34. Forced                                   : No
  35. Color range                              : Limited
  36. Color primaries                          : BT.709
  37. Audio
  38. ID                                       : 2
  39. Format                                   : AC-3
  40. Format/Info                              : Audio Coding 3
  41. Commercial name                          : Dolby Digital
  42. Codec ID                                 : A_AC3
  43. Duration                                 : 1 h 42 min
  44. Bit rate mode                            : Constant
  45. Bit rate                                 : 640 kb/s
  46. Channel(s)                               : 6 channels
  47. Channel layout                           : L R C LFE Ls Rs
  48. Sampling rate                            : 48.0 kHz
  49. Frame rate                               : 31.250 FPS (1536 SPF)
  50. Compression mode                         : Lossy
  51. Stream size                              : 470 MiB (10%)
  52. Language                                 : English
  53. Service kind                             : Complete Main
  54. Default                                  : Yes
  55. Forced                                   : No
  56. Text
  57. ID                                       : 3
  58. Format                                   : PGS
  59. Muxing mode                              : zlib
  60. Codec ID                                 : S_HDMV/PGS
  61. Codec ID/Info                            : Picture based subtitle format used on BDs/HD-DVDs
  62. Duration                                 : 1 h 38 min
  63. Bit rate                                 : 37.5 kb/s
  64. Count of elements                        : 2137
  65. Stream size                              : 26.4 MiB (1%)
  66. Language                                 : Chinese
  67. Default                                  : Yes
  68. Forced                                   : Yes
  69. Menu
  70. 00:00:00.000                             : en:第 01 章
  71. 00:04:32.021                             : en:第 02 章
  72. 00:10:00.182                             : en:第 03 章
  73. 00:14:43.882                             : en:第 04 章
  74. 00:20:42.574                             : en:第 05 章
  75. 00:24:20.667                             : en:第 06 章
  76. 00:29:05.910                             : en:第 07 章
  77. 00:32:23.358                             : en:第 08 章
  78. 00:38:24.677                             : en:第 09 章
  79. 00:44:27.998                             : en:第 10 章
  80. 00:48:07.092                             : en:第 11 章
  81. 00:56:08.573                             : en:第 12 章
  82. 00:58:16.743                             : en:第 13 章
  83. 01:05:41.729                             : en:第 14 章
  84. 01:10:51.455                             : en:第 15 章
  85. 01:12:15.581                             : en:第 16 章
  86. 01:21:46.526                             : en:第 17 章
  87. 01:29:07.133                             : en:第 18 章
  88. 01:35:12.456                             : en:第 19 章
  89. 01:39:02.478                             : en:第 20 章
复制代码

















保举请利用qBittorrent,utorrent,transmission等标准BT软件下载!以获得最快速度。奉求保种!





回复

使用道具 举报

蓝光币
133
发表于 2022-7-27 09:14:11 | 显示全部楼层

楼主太厉害了!楼主,电影应该很好看我觉得蓝光电影网真是个好地方!
回复 支持 反对

使用道具 举报

懒得打字嘛,点击右侧快捷回复 【右侧内容,后台自定义】
您需要登录后才可以回帖 登录 | 立即加入

本版积分规则

Archiver|小黑屋| 蓝光电影网 |网站地图

Copyright © 2021 Comsenz Inc. Powered by 蓝光电影网

蓝光电影网

本站内容由用户自主分享和转载自互联网,转载目的在于传递更多信息,并不代表本网赞同其观点和对其真实性负责。

如有侵权、违反国家法律政策行为,请联系我们,我们会第一时间及时清除和处理!

举报反馈邮箱:[email protected]

快速回复 返回顶部 返回列表