找回密码

蓝光电影网

查看: 79|回复: 0

[剧情] 赛洛科死城 Sirocco.1951.720p.BluRay.x264-ORBS 4.96GB

[复制链接]
蓝光币
1020
发表于 2022-7-27 22:48:20 | 显示全部楼层 |阅读模式


◎标  题 赛洛科死城
◎译  名 赛洛奇死城 / 梦断北非
◎片  名 Sirocco
◎年  代 1951
◎产  地 美国
◎类  别 剧情 / 行动 / 黑色电影
◎语  言 英语 / 阿拉伯语
◎上映日期 1951-06-01
◎IMDb评分 6.3/10 (2143人评价)
◎IMDb链接 https://www.imdb.com/title/tt0044040/
◎豆瓣链接 https://movie.douban.com/subject/1293128/
◎片  长 98 分钟
◎导  演 柯蒂斯·伯恩哈特 Curtis Bernhardt
◎编  剧 A·I·贝赞里特斯 A.I. Bezzerides
       汉斯·雅各比 Hans Jacoby
       约瑟夫·克塞尔 Joseph Kessel
◎演  员 亨弗莱·鲍嘉 Humphrey Bogart
       玛尔塔·托雷 Märta Torén
       李·科布 Lee J. Cobb
       埃弗雷特·斯隆 Everett Sloane
       杰拉德·摩尔 Gerald Mohr
       泽罗·莫斯苔 Zero Mostel
◎标  签 美国 / 1951 / 美国电影 / 剧情 / 亨弗莱·鲍嘉 / 黑色电影 / 行动 / 黑色
◎简  介

    In 1925 Damascus Harry Smith runs guns to the rebels under Emir Hassan. The French arrest him along with others and force him to sell weapons to them. He develops an interest in French intelligence officer Feroud's mistress Violette.
  1. Video
  2. ID                                       : 1
  3. Format                                   : AVC
  4. Format/Info                              : Advanced Video Codec
  5. Format profile                           : [email protected]
  6. Format settings                          : CABAC / 11 Ref Frames
  7. Format settings, CABAC                   : Yes
  8. Format settings, Reference frames        : 11 frames
  9. Codec ID                                 : V_MPEG4/ISO/AVC
  10. Duration                                 : 1 h 38 min
  11. Bit rate                                 : 6 518 kb/s
  12. Width                                    : 962 pixels
  13. Height                                   : 720 pixels
  14. Display aspect ratio                     : 4:3
  15. Frame rate mode                          : Constant
  16. Frame rate                               : 23.976 (24000/1001/189150) FPS
  17. Color space                              : YUV
  18. Chroma subsampling                       : 4:2:0
  19. Bit depth                                : 8 bits
  20. Scan type                                : Progressive
  21. Bits/(Pixel*Frame)                       : 0.392
  22. Stream size                              : 4.48 GiB (90%)
  23. Writing library                          : x264 core 164 r3095 baee400
  24. Encoding settings                        : cabac=1 / ref=11 / deblock=1:-3:-3 / analyse=0x3:0x133 / me=umh / subme=10 / psy=1 / psy_rd=1.20:0.00 / mixed_ref=1 / me_range=24 / chroma_me=1 / trellis=2 / 8x8dct=1 / cqm=0 / deadzone=21,11 / fast_pskip=0 / chroma_qp_offset=-2 / threads=22 / lookahead_threads=3 / sliced_threads=0 / nr=0 / decimate=0 / interlaced=0 / bluray_compat=0 / constrained_intra=0 / bframes=8 / b_pyramid=2 / b_adapt=2 / b_bias=0 / direct=3 / weightb=1 / open_gop=0 / weightp=2 / keyint=250 / keyint_min=23 / scenecut=40 / intra_refresh=0 / rc_lookahead=60 / rc=crf / mbtree=1 / crf=22.0 / qcomp=0.60 / qpmin=0 / qpmax=69 / qpstep=4 / ip_ratio=1.40 / aq=3:0.90
  25. Default                                  : Yes
  26. Forced                                   : No
  27. Color range                              : Limited
  28. Matrix coefficients                      : BT.709

  29. Audio #1
  30. ID                                       : 2
  31. Format                                   : FLAC
  32. Format/Info                              : Free Lossless Audio Codec
  33. Codec ID                                 : A_FLAC
  34. Duration                                 : 1 h 38 min
  35. Bit rate mode                            : Variable
  36. Bit rate                                 : 598 kb/s
  37. Channel(s)                               : 1 channel
  38. Channel layout                           : C
  39. Sampling rate                            : 48.0 kHz
  40. Frame rate                               : 11.719 FPS (4096 SPF)
  41. Bit depth                                : 24 bits
  42. Compression mode                         : Lossless
  43. Stream size                              : 420 MiB (8%)
  44. Writing library                          : libFLAC 1.3.3 (UTC 2019-08-04)
  45. Language                                 : English
  46. Default                                  : Yes
  47. Forced                                   : No

  48. Audio #2
  49. ID                                       : 3
  50. Format                                   : AAC LC
  51. Format/Info                              : Advanced Audio Codec Low Complexity
  52. Codec ID                                 : A_AAC-2
  53. Duration                                 : 1 h 38 min
  54. Bit rate                                 : 83.9 kb/s
  55. Channel(s)                               : 2 channels
  56. Channel layout                           : L R
  57. Sampling rate                            : 48.0 kHz
  58. Frame rate                               : 46.875 FPS (1024 SPF)
  59. Compression mode                         : Lossy
  60. Delay relative to video                  : 20 ms
  61. Stream size                              : 59.0 MiB (1%)
  62. Title                                    : Commentary
  63. Language                                 : English
  64. Default                                  : No
  65. Forced                                   : No

  66. Text
  67. ID                                       : 4
  68. Format                                   : PGS
  69. Muxing mode                              : zlib
  70. Codec ID                                 : S_HDMV/PGS
  71. Codec ID/Info                            : Picture based subtitle format used on BDs/HD-DVDs
  72. Duration                                 : 1 h 38 min
  73. Bit rate                                 : 41.6 kb/s
  74. Count of elements                        : 3232
  75. Stream size                              : 29.2 MiB (1%)
  76. Title                                    : SDH
  77. Language                                 : English
  78. Default                                  : No
  79. Forced                                   : No

  80. Menu
  81. 00:00:00.000                             : Chapter 01
  82. 00:09:27.150                             : Chapter 02
  83. 00:16:22.732                             : Chapter 03
  84. 00:23:33.912                             : Chapter 04
  85. 00:33:39.851                             : Chapter 05
  86. 00:40:35.516                             : Chapter 06
  87. 00:48:25.486                             : Chapter 07
  88. 00:55:39.836                             : Chapter 08
  89. 01:04:33.578                             : Chapter 09
  90. 01:15:59.889                             : Chapter 10
  91. 01:22:20.269                             : Chapter 11
  92. 01:28:38.230                             : Chapter 12
  93. 01:38:19.977                             : Chapter 13
复制代码





                                       
                                       

                                       
                                       
                                       




回复

使用道具 举报

懒得打字嘛,点击右侧快捷回复 【右侧内容,后台自定义】
您需要登录后才可以回帖 登录 | 立即加入

本版积分规则

Archiver|小黑屋| 蓝光电影网 |网站地图

Copyright © 2021 Comsenz Inc. Powered by 蓝光电影网

蓝光电影网

本站内容由用户自主分享和转载自互联网,转载目的在于传递更多信息,并不代表本网赞同其观点和对其真实性负责。

如有侵权、违反国家法律政策行为,请联系我们,我们会第一时间及时清除和处理!

举报反馈邮箱:[email protected]

快速回复 返回顶部 返回列表