找回密码

蓝光电影网

查看: 75|回复: 1

[其他] 两盎司铅 My.Name.Is.Pecos.1966.1080p.BluRay.x264-ORBS 8.35GB

[复制链接]
蓝光币
1020
发表于 2022-7-27 22:56:46 | 显示全部楼层 |阅读模式


◎标  题 两盎司铅
◎译  名 My Name is Pecos / American Bull / 我叫佩科斯
◎片  名 2 once di piombo
◎年  代 1966
◎产  地 意大利
◎类  别 西部
◎语  言 意大利语
◎上映日期 1966(意大利)
◎IMDb评分 6.1/10 (252人评价)
◎IMDb链接 https://www.imdb.com/title/tt0060351/
◎豆瓣链接 https://movie.douban.com/subject/26676097/
◎片  长 83分钟
◎导  演 毛里齐奥·卢奇迪 Maurizio Lucidi
◎演  员 露西亚·莫杜尼奥 Lucia Modugno
       吉诺·巴巴坎 Gino Barbacane
       弗朗哥·维拉 Franco Villa
◎标  签 意大利 / 行动 / Spaghetti-Western
◎简  介

  everyone wants to know who the Mexican is. He always answer slowly, “my name is Pecos”. Pecos Martinez ( Robert Woods) to be exact, and he’s returned to his hometown of Houston to settle up with Clain(Norman Clarke), the leader of a gang of cut-throats. Clain is busy looking for the money from a recent robbery that’s been stolen from him. Soon the stolen cash in Pecos’ vengeanc...
  1. Video
  2. ID                                       : 1
  3. Format                                   : AVC
  4. Format/Info                              : Advanced Video Codec
  5. Format profile                           : [email protected]
  6. Format settings                          : CABAC / 5 Ref Frames
  7. Format settings, CABAC                   : Yes
  8. Format settings, Reference frames        : 5 frames
  9. Codec ID                                 : V_MPEG4/ISO/AVC
  10. Duration                                 : 1 h 25 min
  11. Bit rate                                 : 12.7 Mb/s
  12. Width                                    : 1 920 pixels
  13. Height                                   : 816 pixels
  14. Display aspect ratio                     : 2.35:1
  15. Frame rate mode                          : Constant
  16. Frame rate                               : 23.976 (24000/1001/189150) FPS
  17. Color space                              : YUV
  18. Chroma subsampling                       : 4:2:0
  19. Bit depth                                : 8 bits
  20. Scan type                                : Progressive
  21. Bits/(Pixel*Frame)                       : 0.339
  22. Stream size                              : 7.58 GiB (91%)
  23. Writing library                          : x264 core 164 r3095 baee400
  24. Encoding settings                        : cabac=1 / ref=5 / deblock=1:-3:-3 / analyse=0x3:0x133 / me=umh / subme=10 / psy=1 / psy_rd=1.20:0.00 / mixed_ref=1 / me_range=24 / chroma_me=1 / trellis=2 / 8x8dct=1 / cqm=0 / deadzone=21,11 / fast_pskip=0 / chroma_qp_offset=-2 / threads=24 / lookahead_threads=4 / sliced_threads=0 / nr=0 / decimate=0 / interlaced=0 / bluray_compat=0 / constrained_intra=0 / bframes=8 / b_pyramid=2 / b_adapt=2 / b_bias=0 / direct=3 / weightb=1 / open_gop=0 / weightp=2 / keyint=250 / keyint_min=23 / scenecut=40 / intra_refresh=0 / rc_lookahead=60 / rc=crf / mbtree=1 / crf=21.5 / qcomp=0.60 / qpmin=0 / qpmax=69 / qpstep=4 / ip_ratio=1.40 / aq=3:0.90
  25. Default                                  : Yes
  26. Forced                                   : No
  27. Color range                              : Limited
  28. Matrix coefficients                      : BT.709

  29. Audio #1
  30. ID                                       : 2
  31. Format                                   : FLAC
  32. Format/Info                              : Free Lossless Audio Codec
  33. Codec ID                                 : A_FLAC
  34. Duration                                 : 1 h 25 min
  35. Bit rate mode                            : Variable
  36. Bit rate                                 : 545 kb/s
  37. Channel(s)                               : 1 channel
  38. Channel layout                           : C
  39. Sampling rate                            : 48.0 kHz
  40. Frame rate                               : 11.719 FPS (4096 SPF)
  41. Bit depth                                : 24 bits
  42. Compression mode                         : Lossless
  43. Delay relative to video                  : 2 s 2 ms
  44. Stream size                              : 332 MiB (4%)
  45. Writing library                          : libFLAC 1.3.3 (UTC 2019-08-04)
  46. Language                                 : Italian
  47. Default                                  : Yes
  48. Forced                                   : No

  49. Audio #2
  50. ID                                       : 3
  51. Format                                   : FLAC
  52. Format/Info                              : Free Lossless Audio Codec
  53. Codec ID                                 : A_FLAC
  54. Duration                                 : 1 h 25 min
  55. Bit rate mode                            : Variable
  56. Bit rate                                 : 641 kb/s
  57. Channel(s)                               : 1 channel
  58. Channel layout                           : C
  59. Sampling rate                            : 48.0 kHz
  60. Frame rate                               : 11.719 FPS (4096 SPF)
  61. Bit depth                                : 24 bits
  62. Compression mode                         : Lossless
  63. Delay relative to video                  : 2 s 2 ms
  64. Stream size                              : 391 MiB (5%)
  65. Writing library                          : libFLAC 1.3.3 (UTC 2019-08-04)
  66. Language                                 : English
  67. Default                                  : No
  68. Forced                                   : No

  69. Audio #3
  70. ID                                       : 4
  71. Format                                   : AAC LC
  72. Format/Info                              : Advanced Audio Codec Low Complexity
  73. Codec ID                                 : A_AAC-2
  74. Duration                                 : 1 h 25 min
  75. Bit rate                                 : 83.1 kb/s
  76. Channel(s)                               : 1 channel
  77. Channel layout                           : C
  78. Sampling rate                            : 48.0 kHz
  79. Frame rate                               : 46.875 FPS (1024 SPF)
  80. Compression mode                         : Lossy
  81. Delay relative to video                  : 1 s 958 ms
  82. Stream size                              : 50.6 MiB (1%)
  83. Title                                    : Commentary
  84. Language                                 : English
  85. Default                                  : No
  86. Forced                                   : No

  87. Text #1
  88. ID                                       : 5
  89. Format                                   : UTF-8
  90. Codec ID                                 : S_TEXT/UTF8
  91. Codec ID/Info                            : UTF-8 Plain Text
  92. Duration                                 : 1 h 21 min
  93. Bit rate                                 : 37 b/s
  94. Count of elements                        : 681
  95. Stream size                              : 22.8 KiB (0%)
  96. Title                                    : English (Forced)
  97. Language                                 : English
  98. Default                                  : Yes
  99. Forced                                   : Yes

  100. Text #2
  101. ID                                       : 6
  102. Format                                   : PGS
  103. Muxing mode                              : zlib
  104. Codec ID                                 : S_HDMV/PGS
  105. Codec ID/Info                            : Picture based subtitle format used on BDs/HD-DVDs
  106. Duration                                 : 1 h 23 min
  107. Bit rate                                 : 26.1 kb/s
  108. Count of elements                        : 1730
  109. Stream size                              : 15.5 MiB (0%)
  110. Title                                    : SDH
  111. Language                                 : English
  112. Default                                  : No
  113. Forced                                   : No

  114. Text #3
  115. ID                                       : 7
  116. Format                                   : PGS
  117. Muxing mode                              : zlib
  118. Codec ID                                 : S_HDMV/PGS
  119. Codec ID/Info                            : Picture based subtitle format used on BDs/HD-DVDs
  120. Duration                                 : 1 h 21 min
  121. Bit rate                                 : 21.3 kb/s
  122. Count of elements                        : 1362
  123. Stream size                              : 12.5 MiB (0%)
  124. Language                                 : English
  125. Default                                  : No
  126. Forced                                   : No

  127. Menu
  128. 00:00:00.000                             : Chapter 01
  129. 00:07:27.906                             : Chapter 02
  130. 00:14:36.834                             : Chapter 03
  131. 00:22:15.793                             : Chapter 04
  132. 00:28:27.414                             : Chapter 05
  133. 00:35:19.576                             : Chapter 06
  134. 00:42:34.761                             : Chapter 07
  135. 00:49:33.929                             : Chapter 08
  136. 00:55:13.060                             : Chapter 09
  137. 01:03:30.098                             : Chapter 10
  138. 01:09:09.729                             : Chapter 11
  139. 01:17:28.394                             : Chapter 12
复制代码





                                       
                                       

                                       
                                       
                                       




回复

使用道具 举报

蓝光币
157
发表于 2022-7-28 00:37:39 | 显示全部楼层
感谢分享
回复

使用道具 举报

懒得打字嘛,点击右侧快捷回复 【右侧内容,后台自定义】
您需要登录后才可以回帖 登录 | 立即加入

本版积分规则

Archiver|小黑屋| 蓝光电影网 |网站地图

Copyright © 2021 Comsenz Inc. Powered by 蓝光电影网

蓝光电影网

本站内容由用户自主分享和转载自互联网,转载目的在于传递更多信息,并不代表本网赞同其观点和对其真实性负责。

如有侵权、违反国家法律政策行为,请联系我们,我们会第一时间及时清除和处理!

举报反馈邮箱:[email protected]

快速回复 返回顶部 返回列表