找回密码

蓝光电影网

查看: 234|回复: 2

[2160p] 迷失之城[杜比视界版本][简繁英字幕].The.Lost.City.2022.2160p.DOVI.UHD.BluRay.TrueHD.7.1.Atmos.x265-10bit-BATHD 19.03GB

[复制链接]
蓝光币
7
发表于 2022-7-28 01:46:37 | 显示全部楼层 |阅读模式


◎标  题 丢失之城
◎译  名 丢失D城 / Lost City of D / 失惊无神闯谜城(港) / 失落谜城(台)
◎片  名 The Lost City
◎年  代 2022
◎产  地 美国
◎类  别 笑剧 / 行动 / 冒险
◎语  言 英语
◎上映日期 2022-06(中国大陆) / 2022-03-25(美国)
◎IMDb评分 6.1/10 (78671人评价)
◎IMDb链接 https://www.imdb.com/title/tt13320622/
◎豆瓣评分 5.3/10 (11185人评价)
◎豆瓣链接 https://movie.douban.com/subject/35303842/
◎片  长 112分钟
◎导  演 艾伦·尼 Aaron Nee
       亚当·尼 Adam Nee
◎编  剧 奥伦·尤济尔 Oren Uziel
       达纳·福克斯 Dana Fox
       亚当·尼 Adam Nee
       艾伦·尼 Aaron Nee
       赛斯·戈登 Seth Gordon
◎演  员 桑德拉·布洛克 Sandra Bullock
       查宁·塔图姆 Channing Tatum
       丹尼尔·雷德克里夫 Daniel Radcliffe
       达明·乔伊·伦道夫 Da'Vine Joy Randolph
       布拉德·皮特 Brad Pitt
       奥斯卡·努内斯 Oscar Nuñez
       帕蒂·哈里森 Patti Harrison
       杨伯文 Bowen Yang
       乔安·普林格尔 Joan Pringle
       赫克托·阿尼巴尔 Héctor Aníbal
       托马斯·福布斯·约翰逊 Thomas Forbes-Johnson
       斯莱·刘易斯 Sli Lewis
       亚当·尼 Adam Nee
       雷蒙德·李 Raymond Lee
       安东尼·阿尔瓦雷斯 Anthony Alvarez
       马西·哈罗 Marcy Jarreau
       瑞恩·贾德 Ryan Judd
       莉莎·蔡辛 Liza Chasin
       桑德拉·布洛克 Sandra Bullock
       赛斯·戈登 Seth Gordon
       玛琳·斯图尔特 Marlene Stewart
◎简  介
  洛蕾塔·塞琪(桑德拉·布洛克 饰)是一位才华横溢但与世隔断的作家。在她的畅销恋爱冒险小说里,总会出现很多奇异的地方。而作为本书的封面模特,艾伦(查宁·塔图姆 饰)平生都在努力于展现书中豪杰脚色“达什”的小我魅力。 ” 在与艾伦一路宣传新书时,洛雷塔被一位怪僻的亿万富翁(丹尼尔·雷德克里夫 饰)绑架。这位亿万富翁深信,洛蕾塔的新书能率领他找到失落古城中的宝藏。 与此同时,艾伦为了证实自己可以成为现实中的豪杰,而不但仅是洛蕾塔虚拟的人物,决议前往救援她。这对极差池付的同伴需要配合尽力,才能在邪恶的森林中保存下来,并在亿万富翁赶到前找到陈腐的宝藏。
  1. ##### MediaInfo ######
  2. General
  3. Unique ID                                : 271960982556728882090587286563735716007 (0xCC99C7AE26E645704D9814F1B93BC0A7)
  4. Complete name                            : The.Lost.City.2022.2160p.DOVI.UHD.BluRay.TrueHD.7.1.Atmos.x265-10bit-BATHD.mkv
  5. Format                                   : Matroska
  6. Format version                           : Version 4
  7. File size                                : 19.0 GiB
  8. Duration                                 : 1 h 51 min
  9. Overall bit rate mode                    : Variable
  10. Overall bit rate                         : 24.4 Mb/s
  11. Movie name                               : How Much Do You Love Me 2005 1080p BluRay DTS x264-HDS
  12. Encoded date                             : UTC 2022-07-25 14:46:21
  13. Writing application                      : mkvmerge v69.0.0 ('Day And Age') 64-bit
  14. Writing library                          : libebml v1.4.2 + libmatroska v1.6.4
  15. Video
  16. ID                                       : 1
  17. Format                                   : HEVC
  18. Format/Info                              : High Efficiency Video Coding
  19. Format profile                           : Main [email protected]@High
  20. HDR format                               : SMPTE ST 2086, HDR10 compatible
  21. Codec ID                                 : V_MPEGH/ISO/HEVC
  22. Duration                                 : 1 h 51 min
  23. Bit rate                                 : 19.7 Mb/s
  24. Width                                    : 3 840 pixels
  25. Height                                   : 1 608 pixels
  26. Display aspect ratio                     : 2.40:1
  27. Frame rate mode                          : Constant
  28. Frame rate                               : 23.976 (24000/1001/53875) FPS
  29. Color space                              : YUV
  30. Chroma subsampling                       : 4:2:0
  31. Bit depth                                : 10 bits
  32. Bits/(Pixel*Frame)                       : 0.133
  33. Stream size                              : 15.4 GiB (81%)
  34. Title                                    : @HDSky
  35. Writing library                          : x265 - H.265/HEVC codec
  36. Default                                  : Yes
  37. Forced                                   : No
  38. Color range                              : Limited
  39. Color primaries                          : BT.2020
  40. Transfer characteristics                 : PQ
  41. Matrix coefficients                      : BT.2020 non-constant
  42. Mastering display color primaries        : Display P3
  43. Mastering display luminance              : min: 0.0001 cd/m2, max: 1000 cd/m2
  44. Maximum Content Light Level              : 1000 cd/m2
  45. Maximum Frame-Average Light Level        : 353 cd/m2
  46. Audio #1
  47. ID                                       : 2
  48. Format                                   : MLP FBA 16-ch
  49. Format/Info                              : Meridian Lossless Packing FBA with 16-channel presentation
  50. Commercial name                          : Dolby TrueHD with Dolby Atmos
  51. Codec ID                                 : A_TRUEHD
  52. Duration                                 : 1 h 51 min
  53. Bit rate mode                            : Variable
  54. Bit rate                                 : 3 897 kb/s
  55. Maximum bit rate                         : 6 855 kb/s
  56. Channel(s)                               : 8 channels
  57. Channel layout                           : L R C LFE Ls Rs Lb Rb
  58. Sampling rate                            : 48.0 kHz
  59. Frame rate                               : 1 200.000 FPS (40 SPF)
  60. Compression mode                         : Lossless
  61. Stream size                              : 3.04 GiB (16%)
  62. Title                                    : English
  63. Language                                 : English
  64. Default                                  : Yes
  65. Forced                                   : No
  66. Number of dynamic objects                : 11
  67. Bed channel count                        : 1 channel
  68. Bed channel configuration                : LFE
  69. Audio #2
  70. ID                                       : 3
  71. Format                                   : AC-3
  72. Format/Info                              : Audio Coding 3
  73. Commercial name                          : Dolby Digital
  74. Codec ID                                 : A_AC3
  75. Duration                                 : 1 h 51 min
  76. Bit rate mode                            : Constant
  77. Bit rate                                 : 640 kb/s
  78. Channel(s)                               : 6 channels
  79. Channel layout                           : L R C LFE Ls Rs
  80. Sampling rate                            : 48.0 kHz
  81. Frame rate                               : 31.250 FPS (1536 SPF)
  82. Compression mode                         : Lossy
  83. Stream size                              : 512 MiB (3%)
  84. Service kind                             : Complete Main
  85. Default                                  : Yes
  86. Forced                                   : No
  87. Text #1
  88. ID                                       : 4
  89. Format                                   : PGS
  90. Muxing mode                              : zlib
  91. Codec ID                                 : S_HDMV/PGS
  92. Codec ID/Info                            : Picture based subtitle format used on BDs/HD-DVDs
  93. Duration                                 : 1 h 45 min
  94. Bit rate                                 : 51.4 kb/s
  95. Count of elements                        : 3314
  96. Stream size                              : 38.6 MiB (0%)
  97. Title                                    : ENG
  98. Language                                 : English
  99. Default                                  : Yes
  100. Forced                                   : No
  101. Text #2
  102. ID                                       : 5
  103. Format                                   : PGS
  104. Muxing mode                              : zlib
  105. Codec ID                                 : S_HDMV/PGS
  106. Codec ID/Info                            : Picture based subtitle format used on BDs/HD-DVDs
  107. Duration                                 : 1 h 51 min
  108. Bit rate                                 : 39.1 kb/s
  109. Count of elements                        : 3322
  110. Stream size                              : 31.0 MiB (0%)
  111. Title                                    : CHT
  112. Language                                 : Chinese
  113. Default                                  : Yes
  114. Forced                                   : No
  115. Text #3
  116. ID                                       : 6
  117. Format                                   : PGS
  118. Muxing mode                              : zlib
  119. Codec ID                                 : S_HDMV/PGS
  120. Codec ID/Info                            : Picture based subtitle format used on BDs/HD-DVDs
  121. Duration                                 : 1 h 51 min
  122. Bit rate                                 : 33.6 kb/s
  123. Count of elements                        : 3254
  124. Stream size                              : 26.7 MiB (0%)
  125. Title                                    : CHT
  126. Language                                 : Chinese
  127. Default                                  : Yes
  128. Forced                                   : No
  129. Text #4
  130. ID                                       : 7
  131. Format                                   : PGS
  132. Muxing mode                              : zlib
  133. Codec ID                                 : S_HDMV/PGS
  134. Codec ID/Info                            : Picture based subtitle format used on BDs/HD-DVDs
  135. Duration                                 : 1 h 51 min
  136. Bit rate                                 : 39.3 kb/s
  137. Count of elements                        : 3322
  138. Stream size                              : 31.2 MiB (0%)
  139. Title                                    : CHS
  140. Language                                 : Chinese
  141. Default                                  : Yes
  142. Forced                                   : No
  143. Menu
  144. 00:00:00.000                             : en:第 01 章
  145. 00:11:26.728                             : en:第 02 章
  146. 00:19:31.670                             : en:第 03 章
  147. 00:26:55.572                             : en:第 04 章
  148. 00:33:43.313                             : en:第 05 章
  149. 00:41:30.029                             : en:第 06 章
  150. 00:50:29.944                             : en:第 07 章
  151. 01:02:19.194                             : en:第 08 章
  152. 01:13:31.073                             : en:第 09 章
  153. 01:23:19.286                             : en:第 10 章
  154. 01:34:35.253                             : en:第 11 章
  155. 01:44:53.621                             : en:第 12 章
复制代码

















保举请利用qBittorrent,utorrent,transmission等标准BT软件下载!以获得最快速度。奉求保种!





回复

使用道具 举报

蓝光币
480
发表于 2022-7-28 09:44:50 | 显示全部楼层
感谢分享
回复

使用道具 举报

蓝光币
117
发表于 2022-7-29 15:27:01 | 显示全部楼层
不错不错,很好啊
回复 支持 反对

使用道具 举报

懒得打字嘛,点击右侧快捷回复 【右侧内容,后台自定义】
您需要登录后才可以回帖 登录 | 立即加入

本版积分规则

Archiver|小黑屋| 蓝光电影网 |网站地图

Copyright © 2021 Comsenz Inc. Powered by 蓝光电影网

蓝光电影网

本站内容由用户自主分享和转载自互联网,转载目的在于传递更多信息,并不代表本网赞同其观点和对其真实性负责。

如有侵权、违反国家法律政策行为,请联系我们,我们会第一时间及时清除和处理!

举报反馈邮箱:[email protected]

快速回复 返回顶部 返回列表