找回密码

蓝光电影网

查看: 25|回复: 0

[剧情] 惊声尖叫5[繁英字幕].Scream.2022.BluRay.1080p.DTS-HD.MA7.1.x265.10bit-ALT 9.93GB

[复制链接]
蓝光币
7
发表于 2022-7-28 01:50:17 | 显示全部楼层 |阅读模式


◎标  题 惊声尖叫5
◎译  名 夺命狂呼(港) / 惊声尖叫(台) / 新版惊声尖叫 / 新惊声尖叫 / Scream 5
◎片  名 Scream
◎年  代 2022
◎产  地 美国
◎类  别 惊悚 / 可骇
◎语  言 英语
◎上映日期 2022-01-14(美国)
◎IMDb评分 6.5/10 (76154人评价)
◎IMDb链接 https://www.imdb.com/title/tt11245972/
◎豆瓣评分 5.8/10 (6303人评价)
◎豆瓣链接 https://movie.douban.com/subject/34984272/
◎片  长 114分钟
◎导  演 马特·贝蒂内利-奥尔平 Matt Bettinelli-Olpin
       泰勒·吉勒特 Tyler Gillett
◎编  剧 詹姆斯·范德比尔特 James Vanderbilt
       盖伊·比尤西克 Guy Busick
       凯文·威廉姆森 Kevin Williamson
◎演  员 大卫·阿奎特 David Arquette
       内芙·坎贝尔 Neve Campbell
       柯特妮·考克斯 Courteney Cox
       梅丽莎·巴雷拉 Melissa Barrera
       珍娜·奥尔特加 Jenna Ortega
       梅森·古丁 Mason Gooding
       迪兰·明奈特 Dylan Minnette
       玛丽·谢尔顿 Marley Shelton
       杰克·奎德 Jack Quaid
       贾思敏·萨沃伊·布朗 Jasmin Savoy Brown
       索尼娅·阿马尔 Sonia Ammar
       米奇·麦迪森 Mikey Madison
       凯尔·加尔纳 Kyle Gallner
       希瑟·玛塔拉佐 Heather Matarazzo
       斯基特·乌尔里奇 Skeet Ulrich
       布莱恩·泰勒 Brian Tyler
       布雷特·朱特凯维奇 Brett Jutkiewicz
       艾米丽·冈肖尔 Emily Gunshor
◎简  介
  曾被连续串残暴的杀人事务践踏的安好小镇伍兹柏勒,事隔了25年,一不明杀手再度戴上鬼脸面具,对一群青少年展开虐杀,迫使小镇居民重新面临过往的奥秘。
  1. ##### MediaInfo ######
  2. General
  3. Unique ID                                : 217787830661718129771237049252918900641 (0xA3D86913DEEB10AE71AEEC56894CB7A1)
  4. Complete name                            : Scream.2022.BluRay.1080p.DTS-HD.MA7.1.x265.10bit-ALT.mkv
  5. Format                                   : Matroska
  6. Format version                           : Version 4
  7. File size                                : 9.92 GiB
  8. Duration                                 : 1 h 54 min
  9. Overall bit rate mode                    : Variable
  10. Overall bit rate                         : 12.4 Mb/s
  11. Encoded date                             : UTC 2022-03-31 01:29:42
  12. Writing application                      : mkvmerge v49.0.0 ('Sick Of Losing Soulmates') 64-bit
  13. Writing library                          : libebml v1.4.0 + libmatroska v1.6.1
  14. Video
  15. ID                                       : 1
  16. Format                                   : HEVC
  17. Format/Info                              : High Efficiency Video Coding
  18. Format profile                           : Main [email protected]@High
  19. Codec ID                                 : V_MPEGH/ISO/HEVC
  20. Duration                                 : 1 h 54 min
  21. Bit rate                                 : 7 624 kb/s
  22. Width                                    : 1 920 pixels
  23. Height                                   : 804 pixels
  24. Display aspect ratio                     : 2.40:1
  25. Frame rate mode                          : Constant
  26. Frame rate                               : 23.976 (24000/1001/53875) FPS
  27. Color space                              : YUV
  28. Chroma subsampling                       : 4:2:0
  29. Bit depth                                : 10 bits
  30. Bits/(Pixel*Frame)                       : 0.206
  31. Stream size                              : 6.09 GiB (61%)
  32. Title                                    : HEVC, [email protected]@High, 24/1.001 fps @ 7624 kbps
  33. Writing library                          : x265 3.5+36-1f2c8da77:[Windows][GCC 11.2.0][64 bit] 10bit
  34. Encoding settings                        : cpuid=538751111039 / frame-threads=4 / numa-pools=16 / wpp / pmode / pme / no-psnr / no-ssim / log-level=2 / input-csp=1 / input-res=1920x804 / interlace=0 / total-frames=164444 / level-idc=51 / high-tier=1 / uhd-bd=0 / ref=5 / no-allow-non-conformance / no-repeat-headers / annexb / no-aud / no-eob / no-eos / no-hrd / info / hash=0 / no-temporal-layers / open-gop / min-keyint=24 / keyint=240 / gop-lookahead=0 / bframes=6 / b-adapt=2 / b-pyramid / bframe-bias=0 / rc-lookahead=40 / lookahead-slices=0 / NTM4NzU=uuDQuD2mJt9fsCf / scenecut=40 / no-hist-scenecut / radl=0 / no-splice / no-intra-refresh / ctu=32 / min-cu-size=8 / no-rect / no-amp / max-tu-size=32 / tu-inter-depth=3 / tu-intra-depth=3 / limit-tu=4 / rdoq-level=2 / dynamic-rd=0.00 / no-ssim-rd / signhide / no-tskip / nr-intra=0 / nr-inter=0 / no-constrained-intra / no-strong-intra-smoothing / max-merge=4 / limit-refs=1 / limit-modes / me=3 / subme=4 / merange=25 / temporal-mvp / no-frame-dup / no-hme / weightp / weightb / no-analyze-src-pics / deblock=-3:-3 / no-sao / no-sao-non-deblock / rd=6 / selective-sao=0 / no-early-skip / rskip / no-fast-intra / no-tskip-fast / no-cu-lossless / b-intra / no-splitrd-skip / rdpenalty=0 / psy-rd=2.00 / psy-rdoq=1.00 / no-rd-refine / no-lossless / cbqpoffs=0 / crqpoffs=0 / rc=crf / crf=17.0 / qcomp=0.65 / qpstep=4 / stats-write=0 / stats-read=0 / vbv-maxrate=80000 / vbv-bufsize=80000 / vbv-init=0.9 / min-vbv-fullness=50.0 / max-vbv-fullness=80.0 / crf-max=0.0 / crf-min=0.0 / ipratio=1.40 / pbratio=1.30 / aq-mode=2 / aq-strength=0.85 / cutree / zone-count=0 / no-strict-cbr / qg-size=32 / no-rc-grain / qpmax=69 / qpmin=0 / no-const-vbv / sar=1 / overscan=0 / videoformat=5 / range=0 / colorprim=1 / transfer=1 / colormatrix=1 / chromaloc=0 / display-window=0 / cll=0,0 / min-luma=0 / max-luma=1023 / log2-max-poc-lsb=8 / vui-timing-info / vui-hrd-info / slices=1 / no-opt-qp-pps / no-opt-ref-list-length-pps / no-multi-pass-opt-rps / scenecut-bias=0.05 / hist-threshold=0.03 / no-opt-cu-delta-qp / no-aq-motion / no-hdr10 / no-hdr10-opt / no-dhdr10-opt / no-idr-recovery-sei / analysis-reuse-level=0 / analysis-save-reuse-level=0 / analysis-load-reuse-level=0 / scale-factor=0 / refine-intra=0 / refine-inter=0 / refine-mv=1 / refine-ctu-distortion=0 / no-limit-sao / ctu-info=0 / no-lowpass-dct / refine-analysis-type=0 / copy-pic=1 / max-ausize-factor=1.0 / no-dynamic-refine / no-single-sei / no-hevc-aq / no-svt / no-field / qp-adaptation-range=1.00 / scenecut-aware-qp=0conformance-window-offsets / right=0 / bottom=0 / NTM4NzU= / decoder-max-rate=0 / no-vbv-live-multi-pass
  35. Language                                 : English
  36. Default                                  : Yes
  37. Forced                                   : No
  38. Color range                              : Limited
  39. Color primaries                          : BT.709
  40. Transfer characteristics                 : BT.709
  41. Matrix coefficients                      : BT.709
  42. Audio #1
  43. ID                                       : 2
  44. Format                                   : DTS XLL
  45. Format/Info                              : Digital Theater Systems
  46. Commercial name                          : DTS-HD Master Audio
  47. Codec ID                                 : A_DTS
  48. Duration                                 : 1 h 54 min
  49. Bit rate mode                            : Variable
  50. Bit rate                                 : 4 374 kb/s
  51. Channel(s)                               : 8 channels
  52. Channel layout                           : C L R LFE Lb Rb Lss Rss
  53. Sampling rate                            : 48.0 kHz
  54. Frame rate                               : 93.750 FPS (512 SPF)
  55. Bit depth                                : 24 bits
  56. Compression mode                         : Lossless
  57. Stream size                              : 3.49 GiB (35%)
  58. Title                                    : English DTS-HD Master Audio 7.1 @ 4374?kbps
  59. Language                                 : English
  60. Default                                  : Yes
  61. Forced                                   : No
  62. Audio #2
  63. ID                                       : 3
  64. Format                                   : AC-3
  65. Format/Info                              : Audio Coding 3
  66. Commercial name                          : Dolby Digital
  67. Codec ID                                 : A_AC3
  68. Duration                                 : 1 h 54 min
  69. Bit rate mode                            : Constant
  70. Bit rate                                 : 224 kb/s
  71. Channel(s)                               : 2 channels
  72. Channel layout                           : L R
  73. Sampling rate                            : 48.0 kHz
  74. Frame rate                               : 31.250 FPS (1536 SPF)
  75. Compression mode                         : Lossy
  76. Stream size                              : 183 MiB (2%)
  77. Title                                    : English Dolby Digital Audio 2.0 @ 224?kbps  Commentary
  78. Language                                 : English
  79. Service kind                             : Complete Main
  80. Default                                  : No
  81. Forced                                   : No
  82. Text #1
  83. ID                                       : 4
  84. Format                                   : PGS
  85. Codec ID                                 : S_HDMV/PGS
  86. Codec ID/Info                            : Picture based subtitle format used on BDs/HD-DVDs
  87. Duration                                 : 1 h 46 min
  88. Bit rate                                 : 41.5 kb/s
  89. Count of elements                        : 2954
  90. Stream size                              : 31.5 MiB (0%)
  91. Title                                    : Eng/SUP
  92. Language                                 : English
  93. Default                                  : No
  94. Forced                                   : No
  95. Text #2
  96. ID                                       : 5
  97. Format                                   : PGS
  98. Codec ID                                 : S_HDMV/PGS
  99. Codec ID/Info                            : Picture based subtitle format used on BDs/HD-DVDs
  100. Duration                                 : 1 h 53 min
  101. Bit rate                                 : 43.2 kb/s
  102. Count of elements                        : 3283
  103. Stream size                              : 35.1 MiB (0%)
  104. Title                                    : Eng/SUP  SDH
  105. Language                                 : English
  106. Default                                  : No
  107. Forced                                   : No
  108. Text #3
  109. ID                                       : 6
  110. Format                                   : PGS
  111. Codec ID                                 : S_HDMV/PGS
  112. Codec ID/Info                            : Picture based subtitle format used on BDs/HD-DVDs
  113. Duration                                 : 1 h 53 min
  114. Bit rate                                 : 31.4 kb/s
  115. Count of elements                        : 2985
  116. Stream size                              : 25.5 MiB (0%)
  117. Title                                    : Cht/SUP  原盘繁体
  118. Language                                 : Chinese
  119. Default                                  : Yes
  120. Forced                                   : No
  121. Text #4
  122. ID                                       : 7
  123. Format                                   : PGS
  124. Codec ID                                 : S_HDMV/PGS
  125. Codec ID/Info                            : Picture based subtitle format used on BDs/HD-DVDs
  126. Duration                                 : 1 h 54 min
  127. Bit rate                                 : 89.6 kb/s
  128. Count of elements                        : 4704
  129. Stream size                              : 73.2 MiB (1%)
  130. Title                                    : Eng/SUP  Commentary
  131. Language                                 : English
  132. Default                                  : No
  133. Forced                                   : No
  134. Menu
  135. 00:00:00.000                             : en:第 01 章
  136. 00:11:18.970                             : en:第 02 章
  137. 00:19:12.568                             : en:第 03 章
  138. 00:31:06.364                             : en:第 04 章
  139. 00:38:23.551                             : en:第 05 章
  140. 00:44:21.826                             : en:第 06 章
  141. 00:53:05.599                             : en:第 07 章
  142. 00:59:44.289                             : en:第 08 章
  143. 01:08:48.583                             : en:第 09 章
  144. 01:16:27.708                             : en:第 10 章
  145. 01:26:17.339                             : en:第 11 章
  146. 01:38:30.780                             : en:第 12 章
  147. 01:48:02.976                             : en:第 13 章
复制代码

















保举请利用qBittorrent,utorrent,transmission等标准BT软件下载!以获得最快速度。奉求保种!





回复

使用道具 举报

懒得打字嘛,点击右侧快捷回复 【右侧内容,后台自定义】
您需要登录后才可以回帖 登录 | 立即加入

本版积分规则

Archiver|小黑屋| 蓝光电影网 |网站地图

Copyright © 2021 Comsenz Inc. Powered by 蓝光电影网

蓝光电影网

本站内容由用户自主分享和转载自互联网,转载目的在于传递更多信息,并不代表本网赞同其观点和对其真实性负责。

如有侵权、违反国家法律政策行为,请联系我们,我们会第一时间及时清除和处理!

举报反馈邮箱:[email protected]

快速回复 返回顶部 返回列表