找回密码

蓝光电影网

查看: 40|回复: 1

[剧情] 致命罗密欧[简繁英字幕].Romeo.Must.Die.2000.BluRay.1080p.DTS-HD.MA5.1.x265.10bit-ALT 10.70GB

[复制链接]
蓝光币
7
发表于 2022-7-28 01:50:21 | 显示全部楼层 |阅读模式


◎标  题 致命罗密欧
◎译  名 致命的罗密欧 / 致命豪杰 / 罗密欧必死
◎片  名 Romeo Must Die
◎年  代 2000
◎产  地 美国
◎类  别 剧情 / 行动 / 恋爱 / 惊悚 / 犯罪
◎语  言 英语 / 汉语普通话
◎上映日期 2000-03-20
◎IMDb评分 6.1/10 (69186人评价)
◎IMDb链接 https://www.imdb.com/title/tt0165929/
◎豆瓣评分 6.1/10 (11684人评价)
◎豆瓣链接 https://movie.douban.com/subject/1297670/
◎片  长 115 分钟
◎导  演 安德泽·巴特科维卡 Andrzej Bartkowiak
◎编  剧 米切尔·卡普勒 Mitchell Kapner
◎演  员 李连杰 Jet Li
       阿丽雅 Aaliyah
       艾赛亚·华盛顿 Isaiah Washington
       王盛德 Russell Wong
       德尔罗伊·林多 Delroy Lindo
       D.B.伍德塞德 D.B. Woodside
       区亨利 Henry O
       Jon Kit Lee Jon Kit Lee
       爱德华多·巴莱里尼 Edoardo Ballerini
       安东尼·安德森 Anthony Anderson
       DMX DMX
       马修·哈里逊 Matthew Harrison
       特瑞·陈 Terry Chen
       Derek Lowe Derek Lowe
       拜伦·劳森 Byron Lawson
       本兹·安托万 Benz Antoine
       凯斯·达拉斯 Keith Dallas
       张铮 Tseng Chang
       Richard Yee Richard Yee
       柯林·富 Colin Foo
       兰斯·吉布森 Lance Gibson
       朴敏庆 Grace Park
       马诺·苏德 Manoj Sood
       Gaston Howard Gaston Howard
       克莱·方特诺特 Clay Donahue Fontenot
       阿隆索·奥亚祖恩 Alonso Oyarzun
       叶青春 Françoise Yip
       阿尔文·桑德斯 Alvin Sanders
       威廉·S·泰勒 William S. Taylor
       大卫·科普 David Kopp
       Aaron Joseph Aaron Joseph
       坎迪斯·麦克卢尔 Kandyse McClure
       Jody Vance Jody Vance
       Larry Lam Larry Lam
◎标  签 李连杰 / 行动 / 美国 / 美国电影 / 犯罪 / 2000 / 致命罗密欧 / 电影
◎简  介
    韩星(李连杰 饰)原本是香港的一位差人,但他的家属却掌管着美国一个华人犯罪团体,势力庞大。一次韩星为了替父亲顶罪,丢掉了工作,进入了香港的牢狱服刑。服刑时代,韩星忽然得知自己的亲生弟弟的死讯,悲痛不已的他成功逃狱前往了美国寻觅弟弟的灭亡真相。一切的人都告诉韩星,弟弟的死是和他们家属对峙的黑人帮派酿成的,但韩星却隐约感觉别有内幕,因而他展开了观察。时代,韩星熟悉了美丽的女孩特蕾西(阿丽雅 Aaliyah 饰),本来特蕾西正是对峙帮派的老迈的女儿。未几,特蕾西的哥哥也被人谋杀了,一样不相信四周的人都一面之词的特蕾西和韩星一路展开了观察。终极,他们发现,真相本来很残暴。
  1. ##### MediaInfo ######
  2. General
  3. Unique ID                                : 239332664813969779035679183841810229815 (0xB40DCB69D35FF9A1246B4F2890D4AA37)
  4. Complete name                            : Romeo.Must.Die.2000.BluRay.1080p.DTS-HD.MA5.1.x265.10bit-ALT.mkv
  5. Format                                   : Matroska
  6. Format version                           : Version 4
  7. File size                                : 10.7 GiB
  8. Duration                                 : 1 h 55 min
  9. Overall bit rate mode                    : Variable
  10. Overall bit rate                         : 13.3 Mb/s
  11. Encoded date                             : UTC 2022-03-30 03:58:55
  12. Writing application                      : mkvmerge v49.0.0 ('Sick Of Losing Soulmates') 64-bit
  13. Writing library                          : libebml v1.4.0 + libmatroska v1.6.1
  14. Video
  15. ID                                       : 1
  16. Format                                   : HEVC
  17. Format/Info                              : High Efficiency Video Coding
  18. Format profile                           : Main [email protected]@High
  19. Codec ID                                 : V_MPEGH/ISO/HEVC
  20. Duration                                 : 1 h 55 min
  21. Bit rate                                 : 9 053 kb/s
  22. Width                                    : 1 920 pixels
  23. Height                                   : 800 pixels
  24. Display aspect ratio                     : 2.40:1
  25. Frame rate mode                          : Constant
  26. Frame rate                               : 23.976 (24000/1001/53875) FPS
  27. Color space                              : YUV
  28. Chroma subsampling                       : 4:2:0
  29. Bit depth                                : 10 bits
  30. Bits/(Pixel*Frame)                       : 0.246
  31. Stream size                              : 7.28 GiB (68%)
  32. Title                                    : HEVC, [email protected]@High, 24/1.001 fps @ 9053 kbps
  33. Writing library                          : x265 3.5+36-1f2c8da77:[Windows][GCC 11.2.0][64 bit] 10bit
  34. Encoding settings                        : cpuid=538751049583 / frame-threads=2 / numa-pools=4 / wpp / pmode / pme / no-psnr / no-ssim / log-level=2 / input-csp=1 / input-res=1920x800 / interlace=0 / total-frames=165511 / level-idc=51 / high-tier=1 / uhd-bd=0 / ref=5 / no-allow-non-conformance / no-repeat-headers / annexb / no-aud / no-eob / no-eos / no-hrd / info / hash=0 / no-temporal-layers / open-gop / min-keyint=24 / keyint=240 / gop-lookahead=0 / bframes=6 / b-adapt=2 / b-pyramid / bframe-bias=0 / rc-lookahead=40 / lookahead-slices=0 / NTM4NzU=uuDQuD2mJt9fsCf / scenecut=40 / no-hist-scenecut / radl=0 / no-splice / no-intra-refresh / ctu=32 / min-cu-size=8 / no-rect / no-amp / max-tu-size=32 / tu-inter-depth=3 / tu-intra-depth=3 / limit-tu=4 / rdoq-level=2 / dynamic-rd=0.00 / no-ssim-rd / signhide / no-tskip / nr-intra=0 / nr-inter=0 / no-constrained-intra / no-strong-intra-smoothing / max-merge=4 / limit-refs=1 / limit-modes / me=3 / subme=4 / merange=25 / temporal-mvp / no-frame-dup / no-hme / weightp / weightb / no-analyze-src-pics / deblock=-3:-3 / no-sao / no-sao-non-deblock / rd=6 / selective-sao=0 / no-early-skip / rskip / no-fast-intra / no-tskip-fast / no-cu-lossless / b-intra / no-splitrd-skip / rdpenalty=0 / psy-rd=2.00 / psy-rdoq=1.00 / no-rd-refine / no-lossless / cbqpoffs=0 / crqpoffs=0 / rc=crf / crf=18.5 / qcomp=0.65 / qpstep=4 / stats-write=0 / stats-read=0 / vbv-maxrate=80000 / vbv-bufsize=80000 / vbv-init=0.9 / min-vbv-fullness=50.0 / max-vbv-fullness=80.0 / crf-max=0.0 / crf-min=0.0 / ipratio=1.40 / pbratio=1.30 / aq-mode=2 / aq-strength=0.85 / cutree / zone-count=0 / no-strict-cbr / qg-size=32 / no-rc-grain / qpmax=69 / qpmin=0 / no-const-vbv / sar=1 / overscan=0 / videoformat=5 / range=0 / colorprim=1 / transfer=1 / colormatrix=1 / chromaloc=0 / display-window=0 / cll=0,0 / min-luma=0 / max-luma=1023 / log2-max-poc-lsb=8 / vui-timing-info / vui-hrd-info / slices=1 / no-opt-qp-pps / no-opt-ref-list-length-pps / no-multi-pass-opt-rps / scenecut-bias=0.05 / hist-threshold=0.03 / no-opt-cu-delta-qp / no-aq-motion / no-hdr10 / no-hdr10-opt / no-dhdr10-opt / no-idr-recovery-sei / analysis-reuse-level=0 / analysis-save-reuse-level=0 / analysis-load-reuse-level=0 / scale-factor=0 / refine-intra=0 / refine-inter=0 / refine-mv=1 / refine-ctu-distortion=0 / no-limit-sao / ctu-info=0 / no-lowpass-dct / refine-analysis-type=0 / copy-pic=1 / max-ausize-factor=1.0 / no-dynamic-refine / no-single-sei / no-hevc-aq / no-svt / no-field / qp-adaptation-range=1.00 / scenecut-aware-qp=0conformance-window-offsets / right=0 / bottom=0 / NTM4NzU= / decoder-max-rate=0 / no-vbv-live-multi-pass
  35. Language                                 : English
  36. Default                                  : Yes
  37. Forced                                   : No
  38. Color range                              : Limited
  39. Color primaries                          : BT.709
  40. Transfer characteristics                 : BT.709
  41. Matrix coefficients                      : BT.709
  42. Audio
  43. ID                                       : 2
  44. Format                                   : DTS XLL
  45. Format/Info                              : Digital Theater Systems
  46. Commercial name                          : DTS-HD Master Audio
  47. Codec ID                                 : A_DTS
  48. Duration                                 : 1 h 55 min
  49. Bit rate mode                            : Variable
  50. Bit rate                                 : 4 194 kb/s
  51. Channel(s)                               : 6 channels
  52. Channel layout                           : C L R Ls Rs LFE
  53. Sampling rate                            : 48.0 kHz
  54. Frame rate                               : 93.750 FPS (512 SPF)
  55. Bit depth                                : 24 bits
  56. Compression mode                         : Lossless
  57. Stream size                              : 3.37 GiB (31%)
  58. Title                                    : English DTS-HD Master Audio 5.1 @ 4195 kbps
  59. Language                                 : English
  60. Default                                  : Yes
  61. Forced                                   : No
  62. Text #1
  63. ID                                       : 3
  64. Format                                   : PGS
  65. Codec ID                                 : S_HDMV/PGS
  66. Codec ID/Info                            : Picture based subtitle format used on BDs/HD-DVDs
  67. Duration                                 : 1 h 54 min
  68. Bit rate                                 : 21.1 kb/s
  69. Count of elements                        : 2184
  70. Stream size                              : 17.3 MiB (0%)
  71. Title                                    : Eng/SUP
  72. Language                                 : English
  73. Default                                  : No
  74. Forced                                   : No
  75. Text #2
  76. ID                                       : 4
  77. Format                                   : PGS
  78. Codec ID                                 : S_HDMV/PGS
  79. Codec ID/Info                            : Picture based subtitle format used on BDs/HD-DVDs
  80. Duration                                 : 1 h 49 min
  81. Bit rate                                 : 24.0 kb/s
  82. Count of elements                        : 1812
  83. Stream size                              : 18.9 MiB (0%)
  84. Title                                    : Chs/SUP  简体
  85. Language                                 : Chinese
  86. Default                                  : Yes
  87. Forced                                   : No
  88. Text #3
  89. ID                                       : 5
  90. Format                                   : PGS
  91. Codec ID                                 : S_HDMV/PGS
  92. Codec ID/Info                            : Picture based subtitle format used on BDs/HD-DVDs
  93. Duration                                 : 1 h 49 min
  94. Bit rate                                 : 24.5 kb/s
  95. Count of elements                        : 1812
  96. Stream size                              : 19.3 MiB (0%)
  97. Title                                    : Cht/SUP  繁体
  98. Language                                 : Chinese
  99. Default                                  : No
  100. Forced                                   : No
  101. Menu
  102. 00:00:00.000                             : en:第 01 章
  103. 00:02:38.367                             : en:第 02 章
  104. 00:07:15.560                             : en:第 03 章
  105. 00:11:07.125                             : en:第 04 章
  106. 00:13:12.625                             : en:第 05 章
  107. 00:15:02.026                             : en:第 06 章
  108. 00:16:57.683                             : en:第 07 章
  109. 00:18:46.292                             : en:第 08 章
  110. 00:21:11.020                             : en:第 09 章
  111. 00:22:36.355                             : en:第 10 章
  112. 00:27:25.227                             : en:第 11 章
  113. 00:29:09.289                             : en:第 12 章
  114. 00:30:58.315                             : en:第 13 章
  115. 00:33:52.322                             : en:第 14 章
  116. 00:36:12.087                             : en:第 15 章
  117. 00:39:40.211                             : en:第 16 章
  118. 00:42:30.506                             : en:第 17 章
  119. 00:44:34.380                             : en:第 18 章
  120. 00:47:22.298                             : en:第 19 章
  121. 00:48:59.186                             : en:第 20 章
  122. 00:50:47.461                             : en:第 21 章
  123. 00:54:46.241                             : en:第 22 章
  124. 00:56:32.681                             : en:第 23 章
  125. 01:00:40.595                             : en:第 24 章
  126. 01:03:14.249                             : en:第 25 章
  127. 01:05:33.888                             : en:第 26 章
  128. 01:09:48.559                             : en:第 27 章
  129. 01:12:52.535                             : en:第 28 章
  130. 01:14:24.085                             : en:第 29 章
  131. 01:17:53.502                             : en:第 30 章
  132. 01:21:09.281                             : en:第 31 章
  133. 01:25:29.291                             : en:第 32 章
  134. 01:29:56.600                             : en:第 33 章
  135. 01:34:36.713                             : en:第 34 章
  136. 01:37:07.405                             : en:第 35 章
  137. 01:40:55.216                             : en:第 36 章
  138. 01:43:13.979                             : en:第 37 章
  139. 01:47:47.419                             : en:第 38 章
  140. 01:49:59.635                             : en:第 39 章
复制代码

















保举请利用qBittorrent,utorrent,transmission等标准BT软件下载!以获得最快速度。奉求保种!





回复

使用道具 举报

蓝光币
162
发表于 2022-7-29 23:30:31 | 显示全部楼层
楼主发贴辛苦了,谢谢楼主分享!我觉得蓝光电影网是注册对了!
回复 支持 反对

使用道具 举报

懒得打字嘛,点击右侧快捷回复 【右侧内容,后台自定义】
您需要登录后才可以回帖 登录 | 立即加入

本版积分规则

Archiver|小黑屋| 蓝光电影网 |网站地图

Copyright © 2021 Comsenz Inc. Powered by 蓝光电影网

蓝光电影网

本站内容由用户自主分享和转载自互联网,转载目的在于传递更多信息,并不代表本网赞同其观点和对其真实性负责。

如有侵权、违反国家法律政策行为,请联系我们,我们会第一时间及时清除和处理!

举报反馈邮箱:[email protected]

快速回复 返回顶部 返回列表