找回密码

蓝光电影网

查看: 82|回复: 1

[剧情] 罗密欧与朱丽叶[简繁英字幕].Romeo.and.Juliet.1968.BluRay.1080p.TrueHD.2.0.x265.10bit-ALT 12.44GB

[复制链接]
蓝光币
8
发表于 2022-7-28 01:50:28 | 显示全部楼层 |阅读模式


◎标  题 罗密欧与朱丽叶
◎译  名 罗米欧与茱丽叶 / 殉情记
◎片  名 Romeo and Juliet
◎年  代 1968
◎产  地 英国 / 意大利
◎类  别 剧情 / 恋爱
◎语  言 英语
◎上映日期 1968-10-19
◎IMDb评分 7.6/10 (30829人评价)
◎IMDb链接 https://www.imdb.com/title/tt0063518/
◎豆瓣链接 https://movie.douban.com/subject/1295467/
◎片  长 138分钟
◎标  签 莎士比亚 / 恋爱 / 典范 / 名著改编 / 英国 / 意大利 / 1968 / 文艺
◎简  介
    莎士比亚的恋爱悲剧《罗密欧与朱丽叶》自1595年问世以来已被搬上银幕12次,其中,1968年由弗兰克·杰弗瑞里导演的版本,自问世以来就一向被视为典型之作。                                                                      在十五世纪意大利的维罗纳城住有二门风望很高而相互尖锐对峙的望族。他们之间不竭的发生血腥的争论。蒙达犹家属的罗密欧(莱昂纳德·怀廷 Leonard Whiting 饰)与卡普雷特家属的朱丽叶(奥丽维娅·赫西 Olivia Hussey 饰)。却一见钟情,擅自成婚。朱丽叶的表兄搬弄罗密欧而被误杀,罗密欧是以被放逐到城外。为了躲避家人逼婚,朱丽叶在神父的帮助下假死,当罗密欧晓得后,赶了返来看到泉台中熟睡的朱丽叶,失望之余喝下毒药自杀,当醒来的朱丽叶看到爱人死后也失望的用短剑刺入了自已的胸部殉情而死。
  1. ##### MediaInfo ######
  2. General
  3. Unique ID                                : 47022199872082587708888591328937278426 (0x2360257281542CAA9A1712230B3C7BDA)
  4. Complete name                            : Romeo.and.Juliet.1968.BluRay.1080p.TrueHD.2.0.x265.10bit-ALT.mkv
  5. Format                                   : Matroska
  6. Format version                           : Version 4
  7. File size                                : 12.4 GiB
  8. Duration                                 : 2 h 18 min
  9. Overall bit rate mode                    : Variable
  10. Overall bit rate                         : 12.9 Mb/s
  11. Encoded date                             : UTC 2022-03-14 06:48:50
  12. Writing application                      : mkvmerge v49.0.0 ('Sick Of Losing Soulmates') 64-bit
  13. Writing library                          : libebml v1.4.0 + libmatroska v1.6.1
  14. Video
  15. ID                                       : 1
  16. Format                                   : HEVC
  17. Format/Info                              : High Efficiency Video Coding
  18. Format profile                           : Main [email protected]@High
  19. Codec ID                                 : V_MPEGH/ISO/HEVC
  20. Duration                                 : 2 h 18 min
  21. Bit rate                                 : 11.7 Mb/s
  22. Width                                    : 1 920 pixels
  23. Height                                   : 1 038 pixels
  24. Display aspect ratio                     : 1.85:1
  25. Frame rate mode                          : Constant
  26. Frame rate                               : 23.976 (24000/1001/53875) FPS
  27. Color space                              : YUV
  28. Chroma subsampling                       : 4:2:0
  29. Bit depth                                : 10 bits
  30. Bits/(Pixel*Frame)                       : 0.245
  31. Stream size                              : 11.3 GiB (91%)
  32. Title                                    : HEVC, [email protected]@High, 24/1.001 fps @ 11716 kbps
  33. Writing library                          : x265 3.4+14-gd419c7152:[Windows][GCC 10.2.0][64 bit] 10bit
  34. Encoding settings                        : cpuid=538751111039 / frame-threads=4 / numa-pools=16 / wpp / pmode / pme / no-psnr / no-ssim / log-level=2 / input-csp=1 / input-res=1920x1038 / interlace=0 / total-frames=198995 / level-idc=51 / high-tier=1 / uhd-bd=0 / ref=5 / no-allow-non-conformance / no-repeat-headers / annexb / no-aud / no-hrd / info / hash=0 / no-temporal-layers / open-gop / min-keyint=24 / keyint=240 / gop-lookahead=0 / bframes=6 / b-adapt=2 / b-pyramid / bframe-bias=0 / rc-lookahead=40 / lookahead-slices=0 / NTM4NzU=uuDQuD2mJt9fsCf / scenecut=40 / hist-scenecut=0 / radl=0 / no-splice / no-intra-refresh / ctu=32 / min-cu-size=8 / no-rect / no-amp / max-tu-size=32 / tu-inter-depth=3 / tu-intra-depth=3 / limit-tu=4 / rdoq-level=2 / dynamic-rd=0.00 / no-ssim-rd / signhide / no-tskip / nr-intra=0 / nr-inter=0 / no-constrained-intra / no-strong-intra-smoothing / max-merge=4 / limit-refs=1 / limit-modes / me=3 / subme=4 / merange=25 / temporal-mvp / no-frame-dup / no-hme / weightp / weightb / no-analyze-src-pics / deblock=-3:-3 / no-sao / no-sao-non-deblock / rd=6 / selective-sao=0 / no-early-skip / rskip / no-fast-intra / no-tskip-fast / no-cu-lossless / b-intra / no-splitrd-skip / rdpenalty=0 / psy-rd=2.00 / psy-rdoq=1.00 / no-rd-refine / no-lossless / cbqpoffs=0 / crqpoffs=0 / rc=crf / crf=19.5 / qcomp=0.65 / qpstep=4 / stats-write=0 / stats-read=0 / vbv-maxrate=80000 / vbv-bufsize=80000 / vbv-init=0.9 / crf-max=0.0 / crf-min=0.0 / ipratio=1.40 / pbratio=1.30 / aq-mode=2 / aq-strength=0.85 / cutree / zone-count=0 / no-strict-cbr / qg-size=32 / no-rc-grain / qpmax=69 / qpmin=0 / no-const-vbv / sar=1 / overscan=0 / videoformat=5 / range=0 / colorprim=1 / transfer=1 / colormatrix=1 / chromaloc=0 / display-window=0 / cll=0,0 / min-luma=0 / max-luma=1023 / log2-max-poc-lsb=8 / vui-timing-info / vui-hrd-info / slices=1 / no-opt-qp-pps / no-opt-ref-list-length-pps / no-multi-pass-opt-rps / scenecut-bias=0.05 / hist-threshold=0.03 / no-opt-cu-delta-qp / no-aq-motion / no-hdr10 / no-hdr10-opt / no-dhdr10-opt / no-idr-recovery-sei / analysis-reuse-level=0 / analysis-save-reuse-level=0 / analysis-load-reuse-level=0 / scale-factor=0 / refine-intra=0 / refine-inter=0 / refine-mv=1 / refine-ctu-distortion=0 / no-limit-sao / ctu-info=0 / no-lowpass-dct / refine-analysis-type=0 / copy-pic=1 / max-ausize-factor=1.0 / no-dynamic-refine / no-single-sei / no-hevc-aq / no-svt / no-field / qp-adaptation-range=1.00 / no-scenecut-aware-qpconformance-window-offsets / right=0 / bottom=0 / NTM4NzU= / decoder-max-rate=0
  35. Language                                 : English
  36. Default                                  : Yes
  37. Forced                                   : No
  38. Color range                              : Limited
  39. Color primaries                          : BT.709
  40. Transfer characteristics                 : BT.709
  41. Matrix coefficients                      : BT.709
  42. Audio #1
  43. ID                                       : 2
  44. Format                                   : MLP FBA
  45. Format/Info                              : Meridian Lossless Packing FBA
  46. Commercial name                          : Dolby TrueHD
  47. Codec ID                                 : A_TRUEHD
  48. Duration                                 : 2 h 18 min
  49. Bit rate mode                            : Variable
  50. Bit rate                                 : 752 kb/s
  51. Maximum bit rate                         : 918 kb/s
  52. Channel(s)                               : 2 channels
  53. Channel layout                           : L R
  54. Sampling rate                            : 48.0 kHz
  55. Frame rate                               : 1 200.000 FPS (40 SPF)
  56. Compression mode                         : Lossless
  57. Stream size                              : 744 MiB (6%)
  58. Title                                    : English Dolby TrueHD 2.0 @ 752 kbps
  59. Language                                 : English
  60. Default                                  : Yes
  61. Forced                                   : No
  62. Audio #2
  63. ID                                       : 3
  64. Format                                   : AC-3
  65. Format/Info                              : Audio Coding 3
  66. Commercial name                          : Dolby Digital
  67. Codec ID                                 : A_AC3
  68. Duration                                 : 2 h 18 min
  69. Bit rate mode                            : Constant
  70. Bit rate                                 : 224 kb/s
  71. Channel(s)                               : 2 channels
  72. Channel layout                           : L R
  73. Sampling rate                            : 48.0 kHz
  74. Frame rate                               : 31.250 FPS (1536 SPF)
  75. Compression mode                         : Lossy
  76. Stream size                              : 222 MiB (2%)
  77. Title                                    : English Dolby Digital Audio 2.0 @ 224 kbps
  78. Language                                 : English
  79. Service kind                             : Complete Main
  80. Default                                  : No
  81. Forced                                   : No
  82. Text #1
  83. ID                                       : 4
  84. Format                                   : PGS
  85. Codec ID                                 : S_HDMV/PGS
  86. Codec ID/Info                            : Picture based subtitle format used on BDs/HD-DVDs
  87. Duration                                 : 2 h 15 min
  88. Bit rate                                 : 28.1 kb/s
  89. Count of elements                        : 2474
  90. Stream size                              : 27.3 MiB (0%)
  91. Title                                    : Eng/SUP
  92. Language                                 : English
  93. Default                                  : No
  94. Forced                                   : No
  95. Text #2
  96. ID                                       : 5
  97. Format                                   : PGS
  98. Codec ID                                 : S_HDMV/PGS
  99. Codec ID/Info                            : Picture based subtitle format used on BDs/HD-DVDs
  100. Duration                                 : 2 h 15 min
  101. Bit rate                                 : 31.3 kb/s
  102. Count of elements                        : 2866
  103. Stream size                              : 30.4 MiB (0%)
  104. Title                                    : Eng/SUP SDH
  105. Language                                 : English
  106. Default                                  : No
  107. Forced                                   : No
  108. Text #3
  109. ID                                       : 6
  110. Format                                   : PGS
  111. Codec ID                                 : S_HDMV/PGS
  112. Codec ID/Info                            : Picture based subtitle format used on BDs/HD-DVDs
  113. Duration                                 : 2 h 15 min
  114. Bit rate                                 : 32.1 kb/s
  115. Count of elements                        : 3125
  116. Stream size                              : 31.2 MiB (0%)
  117. Title                                    : Chs/SUP 简体
  118. Language                                 : Chinese
  119. Default                                  : Yes
  120. Forced                                   : No
  121. Text #4
  122. ID                                       : 7
  123. Format                                   : PGS
  124. Codec ID                                 : S_HDMV/PGS
  125. Codec ID/Info                            : Picture based subtitle format used on BDs/HD-DVDs
  126. Duration                                 : 2 h 15 min
  127. Bit rate                                 : 33.2 kb/s
  128. Count of elements                        : 3125
  129. Stream size                              : 32.3 MiB (0%)
  130. Title                                    : Cht/SUP 繁体
  131. Language                                 : Chinese
  132. Default                                  : No
  133. Forced                                   : No
  134. Menu
  135. 00:00:00.000                             : en:第 01 章
  136. 00:08:29.342                             : en:第 02 章
  137. 00:12:23.034                             : en:第 03 章
  138. 00:17:00.353                             : en:第 04 章
  139. 00:22:51.745                             : en:第 05 章
  140. 00:30:46.136                             : en:第 06 章
  141. 00:38:52.247                             : en:第 07 章
  142. 00:51:44.935                             : en:第 08 章
  143. 00:57:01.585                             : en:第 09 章
  144. 01:04:48.218                             : en:第 10 章
  145. 01:10:56.043                             : en:第 11 章
  146. 01:28:35.519                             : en:第 12 章
  147. 01:34:43.094                             : en:第 13 章
  148. 01:40:51.045                             : en:第 14 章
  149. 01:48:38.303                             : en:第 15 章
  150. 01:55:40.100                             : en:第 16 章
  151. 02:12:47.793                             : en:第 17 章
  152. 02:15:38.339                             : en:第 18 章
复制代码

















保举请利用qBittorrent,utorrent,transmission等标准BT软件下载!以获得最快速度。奉求保种!





回复

使用道具 举报

蓝光币
70
发表于 2022-7-28 06:56:03 | 显示全部楼层

楼主太厉害了!楼主,电影应该很好看我觉得蓝光电影网真是个好地方!
回复 支持 反对

使用道具 举报

懒得打字嘛,点击右侧快捷回复 【右侧内容,后台自定义】
您需要登录后才可以回帖 登录 | 立即加入

本版积分规则

Archiver|小黑屋| 蓝光电影网 |网站地图

Copyright © 2021 Comsenz Inc. Powered by 蓝光电影网

蓝光电影网

本站内容由用户自主分享和转载自互联网,转载目的在于传递更多信息,并不代表本网赞同其观点和对其真实性负责。

如有侵权、违反国家法律政策行为,请联系我们,我们会第一时间及时清除和处理!

举报反馈邮箱:[email protected]

快速回复 返回顶部 返回列表