找回密码

蓝光电影网

查看: 84|回复: 0

[剧情] 转轮手枪[简英字幕].Revolver.2005.BluRay.1080p.TrueHD.5.1.x265.10bit-ALT 9.55GB

[复制链接]
蓝光币
8
发表于 2022-7-28 01:50:31 | 显示全部楼层 |阅读模式


◎标  题 转轮手枪
◎译  名 玩命左轮(台) / 左轮手枪 / 转轮法则
◎片  名 Revolver
◎年  代 2005
◎产  地 法国 / 英国
◎类  别 剧情 / 行动 / 悬疑 / 惊悚 / 犯罪
◎语  言 英语 / 粤语
◎上映日期 2005-09-22
◎IMDb评分 6.3/10 (95015人评价)
◎IMDb链接 https://www.imdb.com/title/tt0365686/
◎豆瓣评分 7.1/10 (13727人评价)
◎豆瓣链接 https://movie.douban.com/subject/1437128/
◎片  长 115 分钟
◎导  演 盖·里奇 Guy Ritchie
◎编  剧 吕克·贝松 Luc Besson
       盖·里奇 Guy Ritchie
◎演  员 杰森·斯坦森 Jason Statham
       雷·利奥塔 Ray Liotta
       维森特·帕斯托雷 Vincent Pastore
       安德雷·本杰明 André Benjamin
       特伦斯·梅纳德 Terence Maynard
       安德鲁·霍华德 Andrew Howard
       马克·斯特朗 Mark Strong
       弗兰西丝卡·安妮丝 Francesca Annis
       M·费尔达 Mem Ferda
       安杰拉·劳伦·史姑娘 Anjela Lauren Smith
       斯蒂芬·沃尔特斯 Stephen Walters
       文森特·里奥特 Vincent Riotta
       汤姆·吴 Tom Wu
       伊恩·普莱斯顿-戴维斯 Ian Puleston-Davies
       马丁·赫德曼 Martin Herdman
       伊川东吾 Togo Igawa
       法鲁克·普鲁提 Faruk Pruti
       瑞奇·格罗弗 Ricky Grover
       唐汉平 Hon Ping Tang
       布伦登·伯恩斯 Brendon Burns
       萨沙·本奈特 Sacha Bennett
       贾丝明·伦纳德 Jasmine Lennard
       朴云龙 Woon Young Park
       彼得·雷尼克 Peter Rnic
       詹姆斯·沃伦 James Warren
       伊拉娜·比内什 Elana Binysh
       布鲁斯·王 Bruce Wang
       瑟奇·绍里奇 Serge Soric
       布莱恩·希巴德 Brian Hibbard
       申德 The Shend
       杰夫·鲁多姆 Jeff Rudom
       Steve Clark-Hall Steve Clark-Hall
       纳塞纽·梅切利 Nathaniel Méchaly
       明迪·马丁 Mindy Marin
       伊芙·斯图尔特 Eve Stewart
       格兰特·阿姆斯特朗 Grant Armstrong
◎简  介
  杰克·格林(杰森·斯坦森 Jason Statham 饰)是一个全日游走于各类赌局的职业赌徒,但是却由于在一次大意的赌局中,被赌界黑势力巨头多西·马查(雷·利奥塔 Ray Liotta 饰)下套,终极锒铛入狱。但是七年的牢狱之灾对杰克来说却并不无裨益,当他发现他的两个狱友别离是国际象棋大师和骗术高手时,便起头了进修进修的门路。刑满出狱的杰克已经身怀特技,大志勃勃地决议重返江湖,并报昔时一箭之仇。                                    
                                今时分歧昔日的杰克很快在赌场上如鱼得水所向无敌,还狠狠地羞辱了多西·马查一回。但是马查也不是好惹的脚色,大发雷霆的他下决心要撤除杰克。但是灾患丛生,就在杰克在忙着躲避多西的围堵之时,命运竟奉告他得了了罕有的血液病,生命只剩下三天刻日……
  1. ##### MediaInfo ######
  2. General
  3. Unique ID                                : 15393096652218472768858024962521259714 (0xB949A428C2E09319D223A8CE87F5EC2)
  4. Complete name                            : Revolver.2005.BluRay.1080p.TrueHD.5.1.x265.10bit-ALT.mkv
  5. Format                                   : Matroska
  6. Format version                           : Version 4
  7. File size                                : 9.55 GiB
  8. Duration                                 : 1 h 44 min
  9. Overall bit rate mode                    : Variable
  10. Overall bit rate                         : 13.1 Mb/s
  11. Encoded date                             : UTC 2021-12-31 02:59:01
  12. Writing application                      : mkvmerge v49.0.0 ('Sick Of Losing Soulmates') 64-bit
  13. Writing library                          : libebml v1.4.0 + libmatroska v1.6.1
  14. Video
  15. ID                                       : 1
  16. Format                                   : HEVC
  17. Format/Info                              : High Efficiency Video Coding
  18. Format profile                           : Main [email protected]@High
  19. Codec ID                                 : V_MPEGH/ISO/HEVC
  20. Duration                                 : 1 h 44 min
  21. Bit rate                                 : 9 647 kb/s
  22. Width                                    : 1 920 pixels
  23. Height                                   : 816 pixels
  24. Display aspect ratio                     : 2.35:1
  25. Frame rate mode                          : Constant
  26. Frame rate                               : 23.976 (24000/1001/53875) FPS
  27. Color space                              : YUV
  28. Chroma subsampling                       : 4:2:0
  29. Bit depth                                : 10 bits
  30. Bits/(Pixel*Frame)                       : 0.257
  31. Stream size                              : 7.04 GiB (74%)
  32. Title                                    : HEVC, [email protected]@High, 24/1.001 fps @ 9642 kbps
  33. Writing library                          : x265 3.4+14-gd419c7152:[Windows][GCC 10.2.0][64 bit] 10bit
  34. Encoding settings                        : cpuid=538751049071 / frame-threads=3 / numa-pools=8 / wpp / pmode / pme / no-psnr / no-ssim / log-level=2 / input-csp=1 / input-res=1920x816 / interlace=0 / total-frames=150264 / level-idc=51 / high-tier=1 / uhd-bd=0 / ref=5 / no-allow-non-conformance / no-repeat-headers / annexb / no-aud / no-hrd / info / hash=0 / no-temporal-layers / open-gop / min-keyint=24 / keyint=240 / gop-lookahead=0 / bframes=6 / b-adapt=2 / b-pyramid / bframe-bias=0 / rc-lookahead=40 / lookahead-slices=0 / NTM4NzU=uuDQuD2mJt9fsCf / scenecut=40 / hist-scenecut=0 / radl=0 / no-splice / no-intra-refresh / ctu=32 / min-cu-size=8 / no-rect / no-amp / max-tu-size=32 / tu-inter-depth=3 / tu-intra-depth=3 / limit-tu=4 / rdoq-level=2 / dynamic-rd=0.00 / no-ssim-rd / signhide / no-tskip / nr-intra=0 / nr-inter=0 / no-constrained-intra / no-strong-intra-smoothing / max-merge=4 / limit-refs=1 / limit-modes / me=3 / subme=4 / merange=25 / temporal-mvp / no-frame-dup / no-hme / weightp / weightb / no-analyze-src-pics / deblock=-3:-3 / no-sao / no-sao-non-deblock / rd=6 / selective-sao=0 / no-early-skip / rskip / no-fast-intra / no-tskip-fast / no-cu-lossless / b-intra / no-splitrd-skip / rdpenalty=0 / psy-rd=2.00 / psy-rdoq=1.00 / no-rd-refine / no-lossless / cbqpoffs=0 / crqpoffs=0 / rc=crf / crf=17.0 / qcomp=0.65 / qpstep=4 / stats-write=0 / stats-read=0 / vbv-maxrate=80000 / vbv-bufsize=80000 / vbv-init=0.9 / crf-max=0.0 / crf-min=0.0 / ipratio=1.40 / pbratio=1.30 / aq-mode=2 / aq-strength=0.85 / cutree / zone-count=0 / no-strict-cbr / qg-size=32 / no-rc-grain / qpmax=69 / qpmin=0 / no-const-vbv / sar=1 / overscan=0 / videoformat=5 / range=0 / colorprim=1 / transfer=1 / colormatrix=1 / chromaloc=0 / display-window=0 / cll=0,0 / min-luma=0 / max-luma=1023 / log2-max-poc-lsb=8 / vui-timing-info / vui-hrd-info / slices=1 / no-opt-qp-pps / no-opt-ref-list-length-pps / no-multi-pass-opt-rps / scenecut-bias=0.05 / hist-threshold=0.03 / no-opt-cu-delta-qp / no-aq-motion / no-hdr10 / no-hdr10-opt / no-dhdr10-opt / no-idr-recovery-sei / analysis-reuse-level=0 / analysis-save-reuse-level=0 / analysis-load-reuse-level=0 / scale-factor=0 / refine-intra=0 / refine-inter=0 / refine-mv=1 / refine-ctu-distortion=0 / no-limit-sao / ctu-info=0 / no-lowpass-dct / refine-analysis-type=0 / copy-pic=1 / max-ausize-factor=1.0 / no-dynamic-refine / no-single-sei / no-hevc-aq / no-svt / no-field / qp-adaptation-range=1.00 / no-scenecut-aware-qpconformance-window-offsets / right=0 / bottom=0 / NTM4NzU= / decoder-max-rate=0
  35. Language                                 : English
  36. Default                                  : Yes
  37. Forced                                   : No
  38. Color range                              : Limited
  39. Color primaries                          : BT.709
  40. Transfer characteristics                 : BT.709
  41. Matrix coefficients                      : BT.709
  42. Audio #1
  43. ID                                       : 2
  44. Format                                   : MLP FBA
  45. Format/Info                              : Meridian Lossless Packing FBA
  46. Commercial name                          : Dolby TrueHD
  47. Codec ID                                 : A_TRUEHD
  48. Duration                                 : 1 h 44 min
  49. Bit rate mode                            : Variable
  50. Bit rate                                 : 2 440 kb/s
  51. Maximum bit rate                         : 4 356 kb/s
  52. Channel(s)                               : 6 channels
  53. Channel layout                           : L R C LFE Ls Rs
  54. Sampling rate                            : 48.0 kHz
  55. Frame rate                               : 1 200.000 FPS (40 SPF)
  56. Compression mode                         : Lossless
  57. Stream size                              : 1.78 GiB (19%)
  58. Title                                    : English Dolby TrueHD 5.1 @ 2440 kbps
  59. Language                                 : English
  60. Default                                  : Yes
  61. Forced                                   : No
  62. Audio #2
  63. ID                                       : 3
  64. Format                                   : AC-3
  65. Format/Info                              : Audio Coding 3
  66. Commercial name                          : Dolby Digital
  67. Codec ID                                 : A_AC3
  68. Duration                                 : 1 h 44 min
  69. Bit rate mode                            : Constant
  70. Bit rate                                 : 640 kb/s
  71. Channel(s)                               : 6 channels
  72. Channel layout                           : L R C LFE Ls Rs
  73. Sampling rate                            : 48.0 kHz
  74. Frame rate                               : 31.250 FPS (1536 SPF)
  75. Compression mode                         : Lossy
  76. Stream size                              : 478 MiB (5%)
  77. Title                                    : English Dolby Digital Audio 5.1 @ 640 kbps
  78. Language                                 : English
  79. Service kind                             : Complete Main
  80. Default                                  : No
  81. Forced                                   : No
  82. Audio #3
  83. ID                                       : 4
  84. Format                                   : AC-3
  85. Format/Info                              : Audio Coding 3
  86. Commercial name                          : Dolby Digital
  87. Codec ID                                 : A_AC3
  88. Duration                                 : 1 h 44 min
  89. Bit rate mode                            : Constant
  90. Bit rate                                 : 192 kb/s
  91. Channel(s)                               : 2 channels
  92. Channel layout                           : L R
  93. Sampling rate                            : 48.0 kHz
  94. Frame rate                               : 31.250 FPS (1536 SPF)
  95. Compression mode                         : Lossy
  96. Stream size                              : 143 MiB (1%)
  97. Title                                    : English Dolby Digital Audio 2.0 @ 192 kbps  Commentary
  98. Language                                 : English
  99. Service kind                             : Complete Main
  100. Default                                  : No
  101. Forced                                   : No
  102. Text #1
  103. ID                                       : 5
  104. Format                                   : PGS
  105. Codec ID                                 : S_HDMV/PGS
  106. Codec ID/Info                            : Picture based subtitle format used on BDs/HD-DVDs
  107. Duration                                 : 1 h 39 min
  108. Bit rate                                 : 39.1 kb/s
  109. Count of elements                        : 2672
  110. Stream size                              : 28.0 MiB (0%)
  111. Title                                    : Eng/SUP
  112. Language                                 : English
  113. Default                                  : No
  114. Forced                                   : No
  115. Text #2
  116. ID                                       : 6
  117. Format                                   : PGS
  118. Codec ID                                 : S_HDMV/PGS
  119. Codec ID/Info                            : Picture based subtitle format used on BDs/HD-DVDs
  120. Duration                                 : 1 h 40 min
  121. Bit rate                                 : 33.2 kb/s
  122. Count of elements                        : 3024
  123. Stream size                              : 23.9 MiB (0%)
  124. Title                                    : Eng/SUP  SDH
  125. Language                                 : English
  126. Default                                  : No
  127. Forced                                   : No
  128. Text #3
  129. ID                                       : 7
  130. Format                                   : PGS
  131. Codec ID                                 : S_HDMV/PGS
  132. Codec ID/Info                            : Picture based subtitle format used on BDs/HD-DVDs
  133. Duration                                 : 1 h 40 min
  134. Bit rate                                 : 28.4 kb/s
  135. Count of elements                        : 2966
  136. Stream size                              : 20.5 MiB (0%)
  137. Title                                    : Chs/SUP  简体
  138. Language                                 : Chinese
  139. Default                                  : Yes
  140. Forced                                   : No
  141. Menu
  142. 00:00:00.000                             : en:第 01 章
  143. 00:06:01.985                             : en:第 02 章
  144. 00:11:57.133                             : en:第 03 章
  145. 00:17:28.797                             : en:第 04 章
  146. 00:24:39.435                             : en:第 05 章
  147. 00:33:01.144                             : en:第 06 章
  148. 00:39:44.590                             : en:第 07 章
  149. 00:45:15.378                             : en:第 08 章
  150. 00:53:15.817                             : en:第 09 章
  151. 00:59:39.157                             : en:第 10 章
  152. 01:05:37.557                             : en:第 11 章
  153. 01:12:10.826                             : en:第 12 章
  154. 01:16:31.587                             : en:第 13 章
  155. 01:19:07.826                             : en:第 14 章
  156. 01:26:05.618                             : en:第 15 章
  157. 01:36:07.051                             : en:第 16 章
复制代码

















保举请利用qBittorrent,utorrent,transmission等标准BT软件下载!以获得最快速度。奉求保种!





回复

使用道具 举报

懒得打字嘛,点击右侧快捷回复 【右侧内容,后台自定义】
您需要登录后才可以回帖 登录 | 立即加入

本版积分规则

Archiver|小黑屋| 蓝光电影网 |网站地图

Copyright © 2021 Comsenz Inc. Powered by 蓝光电影网

蓝光电影网

本站内容由用户自主分享和转载自互联网,转载目的在于传递更多信息,并不代表本网赞同其观点和对其真实性负责。

如有侵权、违反国家法律政策行为,请联系我们,我们会第一时间及时清除和处理!

举报反馈邮箱:[email protected]

快速回复 返回顶部 返回列表