找回密码

蓝光电影网

查看: 75|回复: 0

[剧情] 绝恋[简繁英字幕].Jude.1996.1080p.BluRay.DTS.x265-10bit-BATHD 7.55GB

[复制链接]
蓝光币
8
发表于 2022-7-28 01:51:02 | 显示全部楼层 |阅读模式


◎标  题 绝恋
◎译  名 知名的裘德 / 裘德
◎片  名 Jude
◎年  代 1996
◎产  地 英国
◎类  别 剧情 / 恋爱
◎语  言 英语 / 拉丁语
◎上映日期 1996-09-10(多伦多电影节) / 1996-10-04(英国)
◎IMDb评分 6.9/10 (10393人评价)
◎IMDb链接 https://www.imdb.com/title/tt0116722/
◎豆瓣评分 7.9/10 (5688人评价)
◎豆瓣链接 https://movie.douban.com/subject/1301718/
◎片  长 123分钟
◎导  演 迈克尔·温特伯顿 Michael Winterbottom
◎编  剧 霍辛·阿米尼 Hossein Amini
       托马斯·哈代 Thomas Hardy
◎演  员 克里斯托弗·埃克莱斯顿 Christopher Eccleston
       凯特·温丝莱特 Kate Winslet
       利亚姆·坎宁安 Liam Cunningham
       瑞切尔·格里菲斯 Rachel Griffiths
       琼恩·维特费尔德 June Whitfield
       James Daley James Daley
       Berwick Kaler Berwick Kaler
       肖恩·麦肯齐 Sean McKenzie
       Caitlin Bossley Caitlin Bossley
       詹姆斯·内斯比特 James Nesbitt
       保罗·布朗 Paul Bown
       Amanda Ryan Amanda Ryan
       弗农·多布切夫 Vernon Dobtcheff
       大卫·田纳特 David Tennant
       保罗·柯普雷 Paul Copley
       Ken Jones Ken Jones
       罗杰·阿什顿-格里菲斯 Roger Ashton-Griffiths
       弗蕾达·道伊 Freda Dowie
       德克斯特·弗莱彻 Dexter Fletcher
       阿德里安·鲍尔 Adrian Bower
       凯瑞·莎勒 Kerry Shale
        Allan McGuinness
       保罗·科普利 Paul Copley
       安德鲁·埃顿 Andrew Eaton
       马克·西瓦斯 Mark Shivas
       艾德里安·约翰逊 Adrian Johnston
       爱德华多·塞拉 Eduardo Serra
       Trevor Waite Trevor Waite
       朱迪·法尔 Judy Farr
       詹蒂·叶茨 Janty Yates
       Piers Thompson Piers Thompson
       皮特·汉森 Pete Hanson
       丹尼斯·迈克尔逊 Dennis Michelson
       马克·尼尔姆斯 Mark Nelmes
       派迪·伊森 Paddy Eason
◎标  签 英国 / 恋爱 / 名著改编 / KateWinslet / 英国电影 / 文艺 / 1996 / MichaelWinterbottom
◎简  介
  裘德(克里斯托弗·埃克莱斯顿 Christopher Eccleston饰)在农村长大,一心要用常识改变命运,考取大学成为了他的奋斗方针。可是,年少的愿望却让他与当地一个姑娘发生了关系,大学梦也随之破裂。                                    
                                未几姑娘远走澳洲,寻觅更美好的生活。剩下裘德和他的胡想,继续在这里抽芽长大。裘德为了能考上大学,专门搬到大学城四周苦苦追求机遇。同时在这里,表妹苏(凯特·温丝莱特 Kate Winslet饰)让他悄悄倾慕。迫于亲缘的关系,二人都不敢打破忌讳。当苏嫁给了他人,裘德终究打破了心中压制已久的豪情。他们不理世俗,不想结果,只要一路。即使流浪到天涯都无所害怕。但是,不幸毕竟到临。他们的孩子为这一切付上了繁重的价格,裘德和苏的豪情,亦迎来了严寒的严冬。
  1. ##### MediaInfo ######
  2. General
  3. Unique ID                                : 128108043918064309949930993386147806076 (0x6060B637DC5A9B7FE1C491BF8267FB7C)
  4. Complete name                            : Jude.1996.1080p.BluRay.DTS.x265-10bit-BATHD.mkv
  5. Format                                   : Matroska
  6. Format version                           : Version 4
  7. File size                                : 7.54 GiB
  8. Duration                                 : 2 h 2 min
  9. Overall bit rate                         : 8 818 kb/s
  10. Encoded date                             : UTC 2022-07-26 06:26:39
  11. Writing application                      : mkvmerge v67.0.0 ('Under Stars') 64-bit
  12. Writing library                          : libebml v1.4.2 + libmatroska v1.6.4
  13. Video
  14. ID                                       : 1
  15. Format                                   : HEVC
  16. Format/Info                              : High Efficiency Video Coding
  17. Format profile                           : Main [email protected]@High
  18. Codec ID                                 : V_MPEGH/ISO/HEVC
  19. Duration                                 : 2 h 2 min
  20. Bit rate                                 : 7 288 kb/s
  21. Width                                    : 1 920 pixels
  22. Height                                   : 816 pixels
  23. Display aspect ratio                     : 2.35:1
  24. Frame rate mode                          : Constant
  25. Frame rate                               : 23.976 (24000/1001/53875) FPS
  26. Color space                              : YUV
  27. Chroma subsampling                       : 4:2:0
  28. Bit depth                                : 10 bits
  29. Bits/(Pixel*Frame)                       : 0.194
  30. Stream size                              : 6.24 GiB (83%)
  31. Title                                    : [email protected]
  32. Writing library                          : x265 - H.265/HEVC codec
  33. Default                                  : Yes
  34. Forced                                   : No
  35. Audio
  36. ID                                       : 2
  37. Format                                   : DTS
  38. Format/Info                              : Digital Theater Systems
  39. Codec ID                                 : A_DTS
  40. Duration                                 : 2 h 2 min
  41. Bit rate mode                            : Constant
  42. Bit rate                                 : 1 509 kb/s
  43. Channel(s)                               : 6 channels
  44. Channel layout                           : C L R Ls Rs LFE
  45. Sampling rate                            : 48.0 kHz
  46. Frame rate                               : 93.750 FPS (512 SPF)
  47. Bit depth                                : 24 bits
  48. Compression mode                         : Lossy
  49. Stream size                              : 1.29 GiB (17%)
  50. Title                                    : eng
  51. Language                                 : English
  52. Default                                  : Yes
  53. Forced                                   : No
  54. Text #1
  55. ID                                       : 3
  56. Format                                   : PGS
  57. Muxing mode                              : zlib
  58. Codec ID                                 : S_HDMV/PGS
  59. Codec ID/Info                            : Picture based subtitle format used on BDs/HD-DVDs
  60. Duration                                 : 1 h 56 min
  61. Bit rate                                 : 13.9 kb/s
  62. Count of elements                        : 1589
  63. Stream size                              : 11.6 MiB (0%)
  64. Title                                    : chs
  65. Language                                 : Chinese
  66. Default                                  : Yes
  67. Forced                                   : No
  68. Text #2
  69. ID                                       : 4
  70. Format                                   : PGS
  71. Muxing mode                              : zlib
  72. Codec ID                                 : S_HDMV/PGS
  73. Codec ID/Info                            : Picture based subtitle format used on BDs/HD-DVDs
  74. Duration                                 : 1 h 56 min
  75. Bit rate                                 : 14.3 kb/s
  76. Count of elements                        : 1589
  77. Stream size                              : 11.9 MiB (0%)
  78. Title                                    : cht
  79. Language                                 : Chinese
  80. Default                                  : Yes
  81. Forced                                   : No
  82. Text #3
  83. ID                                       : 5
  84. Format                                   : PGS
  85. Muxing mode                              : zlib
  86. Codec ID                                 : S_HDMV/PGS
  87. Codec ID/Info                            : Picture based subtitle format used on BDs/HD-DVDs
  88. Duration                                 : 1 h 58 min
  89. Bit rate                                 : 15.6 kb/s
  90. Count of elements                        : 2545
  91. Stream size                              : 13.3 MiB (0%)
  92. Title                                    : eng
  93. Language                                 : English
  94. Default                                  : Yes
  95. Forced                                   : No
  96. Menu
  97. 00:00:00.000                             : en:第 01 章
  98. 00:07:05.508                             : en:第 02 章
  99. 00:21:36.128                             : en:第 03 章
  100. 00:30:44.509                             : en:第 04 章
  101. 00:39:27.866                             : en:第 05 章
  102. 00:46:56.188                             : en:第 06 章
  103. 00:56:40.898                             : en:第 07 章
  104. 01:07:29.295                             : en:第 08 章
  105. 01:15:13.009                             : en:第 09 章
  106. 01:24:08.460                             : en:第 10 章
  107. 01:34:35.712                             : en:第 11 章
  108. 01:45:52.930                             : en:第 12 章
  109. 01:59:26.201                             : en:第 13 章
复制代码

















保举请利用qBittorrent,utorrent,transmission等标准BT软件下载!以获得最快速度。奉求保种!





回复

使用道具 举报

懒得打字嘛,点击右侧快捷回复 【右侧内容,后台自定义】
您需要登录后才可以回帖 登录 | 立即加入

本版积分规则

Archiver|小黑屋| 蓝光电影网 |网站地图

Copyright © 2021 Comsenz Inc. Powered by 蓝光电影网

蓝光电影网

本站内容由用户自主分享和转载自互联网,转载目的在于传递更多信息,并不代表本网赞同其观点和对其真实性负责。

如有侵权、违反国家法律政策行为,请联系我们,我们会第一时间及时清除和处理!

举报反馈邮箱:[email protected]

快速回复 返回顶部 返回列表