找回密码

蓝光电影网

查看: 141|回复: 0

[剧情] 黑鸟[简繁英字幕].Blackbird.2020.Bluray.1080p.x265.10bit-MiniHD 4.69GB

[复制链接]
蓝光币
8
发表于 2022-7-28 01:51:39 | 显示全部楼层 |阅读模式


◎标  题 黑鸟
◎译  名 沉默的心 / 说不出的离别(台) / Silent Heart
◎片  名 Blackbird
◎年  代 2019
◎产  地 美国 / 英国
◎类  别 剧情
◎语  言 英语
◎上映日期 2019-09-06(多伦多电影节) / 2020-09-18(美国)
◎IMDb评分 6.6/10 (3911人评价)
◎IMDb链接 https://www.imdb.com/title/tt8717446/
◎豆瓣评分 7.2/10 (980人评价)
◎豆瓣链接 https://movie.douban.com/subject/30277288/
◎片  长 97分钟
◎导  演 罗杰·米歇尔 Roger Michell
◎编  剧 克里斯蒂安·托普 Christian Torpe
◎演  员 苏珊·萨兰登 Susan Sarandon
       凯特·温丝莱特 Kate Winslet
       米娅·华希科沃斯卡 Mia Wasikowska
       安森·布恩 Anson Boon
       山姆·尼尔 Sam Neill
       雷恩·威尔森 Rainn Wilson
       琳赛·邓肯 Lindsay Duncan
       贝克斯·泰勒-克劳斯 Bex Taylor-Klaus
       萨米·卡里姆 Sami Karim
◎标  签 家庭 / 美国 / 剧情 / 凯特·温丝莱特 / 苏珊·萨兰登 / 2019 / 美国电影 / KateWinslet
◎简  介
  莉莉(苏珊·萨兰登 Susan Sarandon 饰)是一个很是忠于自己心里的女人,所以,当她得知自己得了了不治之症命未几矣以后,做出了一个疯狂的决议——赶在自己还可以主宰自己命运的时辰自杀。                                    
                                为了公布这个决议,莉莉将两个女儿安娜(米娅·华希科沃斯卡 Mia Wasikowska 饰)和珍妮弗(凯特·温丝莱特 Kate Winslet 饰)召回了身旁,一路来的还有莉莉的发小利兹(琳赛·邓肯 Lindsay Duncan 饰)。家人们固然不成能支持莉莉的自杀计划,安娜和珍妮弗起头想尽一切法子从中作梗。与此同时,詹妮弗亦震动的发现,本来自己看似老好人的父亲,实在和利兹有着一段不为人知的地下爱情。
  1. ##### MediaInfo ######
  2. General
  3. Unique ID                                : 79147519908007099844439369205197783918 (0x3B8B420335C643F4F08BA4E3D59F436E)
  4. Complete name                            : Blackbird.2020.Bluray.1080p.x265.10bit-MiniHD.mkv
  5. Format                                   : Matroska
  6. Format version                           : Version 4
  7. File size                                : 4.69 GiB
  8. Duration                                 : 1 h 37 min
  9. Overall bit rate                         : 6 865 kb/s
  10. Movie name                               : Blackbird [2020] Bluray 1080p MNHD-FRDS
  11. Encoded date                             : UTC 2021-01-30 06:11:34
  12. Writing application                      : mkvmerge v52.0.0 ('Secret For The Mad') 64-bit
  13. Writing library                          : libebml v1.4.1 + libmatroska v1.6.2
  14. Video
  15. ID                                       : 5
  16. Format                                   : HEVC
  17. Format/Info                              : High Efficiency Video Coding
  18. Format profile                           : Main [email protected]@High
  19. Codec ID                                 : V_MPEGH/ISO/HEVC
  20. Duration                                 : 1 h 37 min
  21. Bit rate                                 : 6 148 kb/s
  22. Width                                    : 1 920 pixels
  23. Height                                   : 804 pixels
  24. Display aspect ratio                     : 2.40:1
  25. Frame rate mode                          : Constant
  26. Frame rate                               : 23.976 (24000/1001/53875) FPS
  27. Color space                              : YUV
  28. Chroma subsampling                       : 4:2:0
  29. Bit depth                                : 10 bits
  30. Bits/(Pixel*Frame)                       : 0.166
  31. Stream size                              : 4.20 GiB (90%)
  32. Writing library                          : x265 3.4+30-g6722fce1f:[Windows][GCC 10.2.0][64 bit] 10bit
  33. Encoding settings                        : cpuid=538751111039 / frame-threads=3 / numa-pools=8 / wpp / pmode / no-pme / no-psnr / no-ssim / log-level=2 / input-csp=1 / input-res=1920x804 / interlace=0 / total-frames=140748 / level-idc=0 / high-tier=1 / uhd-bd=0 / ref=6 / no-allow-non-conformance / no-repeat-headers / annexb / no-aud / no-hrd / info / hash=0 / no-temporal-layers / no-open-gop / min-keyint=23 / keyint=250 / gop-lookahead=0 / bframes=16 / b-adapt=2 / b-pyramid / bframe-bias=0 / rc-lookahead=100 / lookahead-slices=0 / NTM4NzU=uuDQuD2mJt9fsCf / scenecut=40 / hist-scenecut=0 / radl=0 / no-splice / no-intra-refresh / ctu=32 / min-cu-size=8 / no-rect / no-amp / max-tu-size=32 / tu-inter-depth=4 / tu-intra-depth=4 / limit-tu=0 / rdoq-level=2 / dynamic-rd=0.00 / no-ssim-rd / signhide / no-tskip / nr-intra=0 / nr-inter=0 / no-constrained-intra / strong-intra-smoothing / max-merge=5 / limit-refs=0 / no-limit-modes / me=3 / subme=7 / merange=57 / temporal-mvp / no-frame-dup / no-hme / weightp / weightb / no-analyze-src-pics / deblock=-3:-3 / no-sao / no-sao-non-deblock / rd=4 / selective-sao=0 / no-early-skip / no-rskip / no-fast-intra / no-tskip-fast / no-cu-lossless / b-intra / no-splitrd-skip / rdpenalty=0 / psy-rd=1.00 / psy-rdoq=1.00 / no-rd-refine / no-lossless / cbqpoffs=0 / crqpoffs=0 / rc=crf / crf=18.5 / qcomp=0.60 / qpstep=4 / stats-write=0 / stats-read=0 / vbv-maxrate=160000 / vbv-bufsize=160000 / vbv-init=0.9 / min-vbv-fullness=50.0 / max-vbv-fullness=80.0 / crf-max=0.0 / crf-min=0.0 / ipratio=1.30 / pbratio=1.20 / aq-mode=1 / aq-strength=1.00 / no-cutree / zone-count=0 / no-strict-cbr / qg-size=32 / no-rc-grain / qpmax=69 / qpmin=0 / no-const-vbv / sar=0 / overscan=0 / videoformat=5 / range=0 / colorprim=1 / transfer=1 / colormatrix=1 / chromaloc=0 / display-window=0 / cll=0,0 / min-luma=0 / max-luma=1023 / log2-max-poc-lsb=8 / vui-timing-info / vui-hrd-info / slices=1 / no-opt-qp-pps / no-opt-ref-list-length-pps / no-multi-pass-opt-rps / scenecut-bias=0.05 / hist-threshold=0.03 / no-opt-cu-delta-qp / no-aq-motion / no-hdr10 / no-hdr10-opt / no-dhdr10-opt / no-idr-recovery-sei / analysis-reuse-level=0 / analysis-save-reuse-level=0 / analysis-load-reuse-level=0 / scale-factor=0 / refine-intra=0 / refine-inter=0 / refine-mv=1 / refine-ctu-distortion=0 / no-limit-sao / ctu-info=0 / no-lowpass-dct / refine-analysis-type=0 / copy-pic=1 / max-ausize-factor=1.0 / no-dynamic-refine / no-single-sei / no-hevc-aq / no-svt / no-field / qp-adaptation-range=1.00 / no-scenecut-aware-qpconformance-window-offsets / right=0 / bottom=0 / NTM4NzU= / decoder-max-rate=0 / no-vbv-live-multi-pass
  34. Default                                  : Yes
  35. Forced                                   : No
  36. Color range                              : Limited
  37. Color primaries                          : BT.709
  38. Transfer characteristics                 : BT.709
  39. Matrix coefficients                      : BT.709
  40. Audio
  41. ID                                       : 1
  42. Format                                   : AC-3
  43. Format/Info                              : Audio Coding 3
  44. Commercial name                          : Dolby Digital
  45. Codec ID                                 : A_AC3
  46. Duration                                 : 1 h 37 min
  47. Bit rate mode                            : Constant
  48. Bit rate                                 : 640 kb/s
  49. Channel(s)                               : 6 channels
  50. Channel layout                           : L R C LFE Ls Rs
  51. Sampling rate                            : 48.0 kHz
  52. Frame rate                               : 31.250 FPS (1536 SPF)
  53. Compression mode                         : Lossy
  54. Stream size                              : 448 MiB (9%)
  55. Language                                 : English
  56. Service kind                             : Complete Main
  57. Default                                  : Yes
  58. Forced                                   : No
  59. Text #1
  60. ID                                       : 2
  61. ID in the original source medium         : 4608 (0x1200)
  62. Format                                   : PGS
  63. Muxing mode                              : zlib
  64. Codec ID                                 : S_HDMV/PGS
  65. Codec ID/Info                            : Picture based subtitle format used on BDs/HD-DVDs
  66. Duration                                 : 1 h 33 min
  67. Bit rate                                 : 66.4 kb/s
  68. Count of elements                        : 3666
  69. Stream size                              : 44.4 MiB (1%)
  70. Title                                    : eng
  71. Language                                 : English
  72. Default                                  : No
  73. Forced                                   : No
  74. Original source medium                   : Blu-ray
  75. Text #2
  76. ID                                       : 3
  77. ID in the original source medium         : 4609 (0x1201)
  78. Format                                   : PGS
  79. Muxing mode                              : zlib
  80. Codec ID                                 : S_HDMV/PGS
  81. Codec ID/Info                            : Picture based subtitle format used on BDs/HD-DVDs
  82. Duration                                 : 1 h 31 min
  83. Bit rate                                 : 32.9 kb/s
  84. Count of elements                        : 2635
  85. Stream size                              : 21.5 MiB (0%)
  86. Title                                    : chs
  87. Language                                 : Chinese
  88. Default                                  : Yes
  89. Forced                                   : No
  90. Original source medium                   : Blu-ray
  91. Text #3
  92. ID                                       : 4
  93. ID in the original source medium         : 4610 (0x1202)
  94. Format                                   : PGS
  95. Muxing mode                              : zlib
  96. Codec ID                                 : S_HDMV/PGS
  97. Codec ID/Info                            : Picture based subtitle format used on BDs/HD-DVDs
  98. Duration                                 : 1 h 31 min
  99. Bit rate                                 : 33.6 kb/s
  100. Count of elements                        : 2635
  101. Stream size                              : 22.1 MiB (0%)
  102. Title                                    : cht
  103. Language                                 : Chinese
  104. Default                                  : No
  105. Forced                                   : No
  106. Original source medium                   : Blu-ray
  107. Menu
  108. 00:00:00.000                             : en:第 01 章
  109. 00:06:03.029                             : en:第 02 章
  110. 00:18:28.190                             : en:第 03 章
  111. 00:27:24.684                             : en:第 04 章
  112. 00:33:13.408                             : en:第 05 章
  113. 00:41:14.847                             : en:第 06 章
  114. 00:47:47.114                             : en:第 07 章
  115. 00:54:35.522                             : en:第 08 章
  116. 00:59:49.919                             : en:第 09 章
  117. 01:13:44.378                             : en:第 10 章
  118. 01:22:06.421                             : en:第 11 章
  119. 01:33:11.252                             : en:第 12 章
复制代码

















保举请利用qBittorrent,utorrent,transmission等标准BT软件下载!以获得最快速度。奉求保种!





回复

使用道具 举报

懒得打字嘛,点击右侧快捷回复 【右侧内容,后台自定义】
您需要登录后才可以回帖 登录 | 立即加入

本版积分规则

Archiver|小黑屋| 蓝光电影网 |网站地图

Copyright © 2021 Comsenz Inc. Powered by 蓝光电影网

蓝光电影网

本站内容由用户自主分享和转载自互联网,转载目的在于传递更多信息,并不代表本网赞同其观点和对其真实性负责。

如有侵权、违反国家法律政策行为,请联系我们,我们会第一时间及时清除和处理!

举报反馈邮箱:[email protected]

快速回复 返回顶部 返回列表