找回密码

蓝光电影网

查看: 152|回复: 1

[剧情] 垫底辣妹[国日多音轨/简繁字幕].Birigyaru.AKA.Flying.Colors.2015.Bluray.1080p.x265.10bit.DDP.5.1-MiniHD 6.08GB

[复制链接]
蓝光币
8
发表于 2022-7-28 01:51:41 | 显示全部楼层 |阅读模式


◎标  题 垫底辣妹
◎译  名 奇迹补习社(港) / 奇迹补习班 / 垫底女生 / Biri Girl / Flying Colors
◎片  名 ビリギャル
◎年  代 2015
◎产  地 日本
◎类  别 剧情 / 家庭
◎语  言 日语
◎上映日期 2016-04-14(中国大陆) / 2015-05-01(日本)
◎IMDb评分 7.3/10 (2949人评价)
◎IMDb链接 https://www.imdb.com/title/tt4195368/
◎豆瓣评分 8.3/10 (367892人评价)
◎豆瓣链接 https://movie.douban.com/subject/26259677/
◎片  长 117分钟
◎导  演 土井裕泰 Nobuhiro Doi
◎编  剧 桥本裕志 Hiroshi Hashimoto
       坪田信贵 Nobutaka Tsubota
◎演  员 有村架纯 Kasumi Arimura
       伊藤淳史 Atsushi Itô
       吉田羊 Yô Yoshida
       田中哲司 Tetsushi Tanaka
       野村周平 Shuhei Nomura
       安田显 Ken Yasuda
       阿部菜渚美 Nanami Abe
       中村靖日 Yasuhi Nakamura
       矢岛健一 Kenichi Yajima
       峰村理惠 Rie Minemura
       白土七菜 Nana Shirato
       奥田心 Kokoro Okuda
       蔵下穂波 Honami Kurashita
       大内田悠平 Yûhei Ohuchida
       县森鱼 Morio Agata
       川上凛子 Rinko Kawakami
       松井爱莉 Airi Matsui
       山田望叶 Mochika Yamada
       五辻圭 Kei Gotsuji
◎标  签 励志 / 日本 / 青春 / 长大 / 校园 / 温情 / 剧情 / 动人
◎简  介
  长相甜蜜的高中女孩工藤沙耶加(有村架纯 饰)在家并不受父亲待见,父亲一心要把弟弟培育成棒球手,而疏于对女儿们的庇护。沙耶加地点的高中有内部升学的制度,是以她整天和蜜斯妹们吃喝玩乐,进修掉到了全年级倒数第一也绝不为意。温柔发愤的妈妈(吉田羊 饰)经常被校方找去说教,她为女儿的未来焦虑万分,是以将沙耶加送到了坪田(伊藤淳史 饰)所开办的补习班。经过水平测试,沙耶加现实只要小学四年级的水平,不外开畅自傲的坪田漫不尽心,他以独有的方式翻开女孩的心防,两人很快成为好朋友。在坪田的帮助下,沙耶加对进修的态度逐步稠密,后来更立下了考取庆应大学的弘愿。这是丑小鸭绝地逆袭的实在故事……                                    
                                本片按照《年级倒数第一的辣妹一年内误差值提升40以上并考入庆应大学的故事》改编,该书取材自真人真事,由担任影片女配角原型小林沙耶加的私塾教师坪田信贵撰写。
  1. ##### MediaInfo ######
  2. General
  3. Unique ID                                : 119366348548747006133683797023708379251 (0x59CD1F5C4E32C12B044352AEC24F7873)
  4. Complete name                            : Birigyaru.AKA.Flying.Colors.2015.Bluray.1080p.x265.10bit.DDP.5.1-MiniHD.mkv
  5. Format                                   : Matroska
  6. Format version                           : Version 4
  7. File size                                : 6.08 GiB
  8. Duration                                 : 1 h 56 min
  9. Overall bit rate                         : 7 481 kb/s
  10. Movie name                               : 映画 ビリギャル Bluray 1080p FRDS
  11. Encoded date                             : UTC 2021-03-12 09:04:29
  12. Writing application                      : mkvmerge v55.0.0 ('Waiting For Space') 64-bit
  13. Writing library                          : libebml v1.4.2 + libmatroska v1.6.4
  14. Cover                                    : Yes
  15. Attachments                              : cover.jpg
  16. Video
  17. ID                                       : 1
  18. Format                                   : HEVC
  19. Format/Info                              : High Efficiency Video Coding
  20. Format profile                           : Main [email protected]@High
  21. Codec ID                                 : V_MPEGH/ISO/HEVC
  22. Duration                                 : 1 h 56 min
  23. Bit rate                                 : 5 386 kb/s
  24. Width                                    : 1 920 pixels
  25. Height                                   : 1 038 pixels
  26. Display aspect ratio                     : 1.85:1
  27. Frame rate mode                          : Constant
  28. Frame rate                               : 23.976 (24000/1001/53875) FPS
  29. Color space                              : YUV
  30. Chroma subsampling                       : 4:2:0
  31. Bit depth                                : 10 bits
  32. Bits/(Pixel*Frame)                       : 0.113
  33. Stream size                              : 4.38 GiB (72%)
  34. Writing library                          : x265 3.4+33-606265ac7:[Windows][MSVC 1928][64 bit] 10bit
  35. Encoding settings                        : cpuid=538751111039 / frame-threads=2 / numa-pools=4 / wpp / pmode / no-pme / no-psnr / no-ssim / log-level=2 / input-csp=1 / input-res=1920x1038 / interlace=0 / total-frames=167429 / level-idc=0 / high-tier=1 / uhd-bd=0 / ref=4 / no-allow-non-conformance / no-repeat-headers / annexb / no-aud / no-hrd / info / hash=0 / no-temporal-layers / no-open-gop / min-keyint=1 / keyint=250 / gop-lookahead=0 / bframes=6 / b-adapt=2 / b-pyramid / bframe-bias=0 / rc-lookahead=80 / lookahead-slices=0 / NTM4NzU=uuDQuD2mJt9fsCf / scenecut=40 / hist-scenecut=0 / radl=0 / no-splice / no-intra-refresh / ctu=32 / min-cu-size=8 / no-rect / no-amp / max-tu-size=32 / tu-inter-depth=4 / tu-intra-depth=4 / limit-tu=0 / rdoq-level=2 / dynamic-rd=0.00 / no-ssim-rd / signhide / tskip / nr-intra=0 / nr-inter=0 / no-constrained-intra / strong-intra-smoothing / max-merge=5 / limit-refs=0 / no-limit-modes / me=3 / subme=7 / merange=44 / temporal-mvp / no-frame-dup / no-hme / weightp / weightb / no-analyze-src-pics / deblock=-3:-3 / no-sao / no-sao-non-deblock / rd=4 / selective-sao=0 / no-early-skip / no-rskip / no-fast-intra / no-tskip-fast / no-cu-lossless / b-intra / no-splitrd-skip / rdpenalty=0 / psy-rd=1.50 / psy-rdoq=1.00 / no-rd-refine / no-lossless / cbqpoffs=-2 / crqpoffs=-2 / rc=crf / crf=21.0 / qcomp=0.65 / qpstep=4 / stats-write=0 / stats-read=0 / vbv-maxrate=160000 / vbv-bufsize=160000 / vbv-init=0.9 / min-vbv-fullness=50.0 / max-vbv-fullness=80.0 / crf-max=0.0 / crf-min=0.0 / ipratio=1.30 / pbratio=1.20 / aq-mode=1 / aq-strength=1.00 / no-cutree / zone-count=0 / no-strict-cbr / qg-size=8 / no-rc-grain / qpmax=69 / qpmin=0 / no-const-vbv / sar=0 / overscan=0 / videoformat=5 / range=0 / colorprim=1 / transfer=1 / colormatrix=1 / chromaloc=0 / display-window=0 / cll=0,0 / min-luma=0 / max-luma=1023 / log2-max-poc-lsb=8 / vui-timing-info / vui-hrd-info / slices=1 / no-opt-qp-pps / no-opt-ref-list-length-pps / no-multi-pass-opt-rps / scenecut-bias=0.05 / hist-threshold=0.03 / no-opt-cu-delta-qp / no-aq-motion / no-hdr10 / no-hdr10-opt / no-dhdr10-opt / no-idr-recovery-sei / analysis-reuse-level=0 / analysis-save-reuse-level=0 / analysis-load-reuse-level=0 / scale-factor=0 / refine-intra=0 / refine-inter=0 / refine-mv=1 / refine-ctu-distortion=0 / no-limit-sao / ctu-info=0 / no-lowpass-dct / refine-analysis-type=0 / copy-pic=1 / max-ausize-factor=1.0 / no-dynamic-refine / no-single-sei / no-hevc-aq / no-svt / no-field / qp-adaptation-range=1.00 / scenecut-aware-qp=0conformance-window-offsets / right=0 / bottom=0 / NTM4NzU= / decoder-max-rate=0 / no-vbv-live-multi-pass
  36. Default                                  : Yes
  37. Forced                                   : No
  38. Color range                              : Limited
  39. Color primaries                          : BT.709
  40. Transfer characteristics                 : BT.709
  41. Matrix coefficients                      : BT.709
  42. Audio #1
  43. ID                                       : 2
  44. Format                                   : E-AC-3
  45. Format/Info                              : Enhanced AC-3
  46. Commercial name                          : Dolby Digital Plus
  47. Codec ID                                 : A_EAC3
  48. Duration                                 : 1 h 56 min
  49. Bit rate mode                            : Constant
  50. Bit rate                                 : 768 kb/s
  51. Channel(s)                               : 6 channels
  52. Channel layout                           : L R C LFE Ls Rs
  53. Sampling rate                            : 48.0 kHz
  54. Frame rate                               : 31.250 FPS (1536 SPF)
  55. Compression mode                         : Lossy
  56. Stream size                              : 639 MiB (10%)
  57. Language                                 : Japanese
  58. Service kind                             : Complete Main
  59. Default                                  : Yes
  60. Forced                                   : No
  61. Audio #2
  62. ID                                       : 3
  63. Format                                   : E-AC-3
  64. Format/Info                              : Enhanced AC-3
  65. Commercial name                          : Dolby Digital Plus
  66. Codec ID                                 : A_EAC3
  67. Duration                                 : 1 h 56 min
  68. Bit rate mode                            : Constant
  69. Bit rate                                 : 640 kb/s
  70. Channel(s)                               : 6 channels
  71. Channel layout                           : L R C LFE Ls Rs
  72. Sampling rate                            : 48.0 kHz
  73. Frame rate                               : 31.250 FPS (1536 SPF)
  74. Compression mode                         : Lossy
  75. Stream size                              : 533 MiB (9%)
  76. Title                                    : Mandarin
  77. Language                                 : Chinese
  78. Service kind                             : Complete Main
  79. Default                                  : No
  80. Forced                                   : No
  81. Audio #3
  82. ID                                       : 4
  83. Format                                   : AC-3
  84. Format/Info                              : Audio Coding 3
  85. Commercial name                          : Dolby Digital
  86. Codec ID                                 : A_AC3
  87. Duration                                 : 1 h 56 min
  88. Bit rate mode                            : Constant
  89. Bit rate                                 : 640 kb/s
  90. Channel(s)                               : 6 channels
  91. Channel layout                           : L R C LFE Ls Rs
  92. Sampling rate                            : 48.0 kHz
  93. Frame rate                               : 31.250 FPS (1536 SPF)
  94. Compression mode                         : Lossy
  95. Stream size                              : 533 MiB (9%)
  96. Title                                    : TW
  97. Language                                 : Chinese
  98. Service kind                             : Complete Main
  99. Default                                  : No
  100. Forced                                   : No
  101. Text #1
  102. ID                                       : 5
  103. ID in the original source medium         : 4609 (0x1201)
  104. Format                                   : PGS
  105. Muxing mode                              : zlib
  106. Codec ID                                 : S_HDMV/PGS
  107. Codec ID/Info                            : Picture based subtitle format used on BDs/HD-DVDs
  108. Duration                                 : 1 h 54 min
  109. Bit rate                                 : 23.0 kb/s
  110. Count of elements                        : 2478
  111. Stream size                              : 18.8 MiB (0%)
  112. Title                                    : CHS
  113. Language                                 : Chinese
  114. Default                                  : Yes
  115. Forced                                   : No
  116. Original source medium                   : Blu-ray
  117. Text #2
  118. ID                                       : 6
  119. ID in the original source medium         : 4610 (0x1202)
  120. Format                                   : PGS
  121. Muxing mode                              : zlib
  122. Codec ID                                 : S_HDMV/PGS
  123. Codec ID/Info                            : Picture based subtitle format used on BDs/HD-DVDs
  124. Duration                                 : 1 h 54 min
  125. Bit rate                                 : 26.9 kb/s
  126. Count of elements                        : 2478
  127. Stream size                              : 22.0 MiB (0%)
  128. Title                                    : CHT
  129. Language                                 : Chinese
  130. Default                                  : No
  131. Forced                                   : No
  132. Original source medium                   : Blu-ray
  133. Text #3
  134. ID                                       : 7
  135. Format                                   : ASS
  136. Codec ID                                 : S_TEXT/ASS
  137. Codec ID/Info                            : Advanced Sub Station Alpha
  138. Duration                                 : 1 h 56 min
  139. Bit rate                                 : 146 b/s
  140. Count of elements                        : 1704
  141. Compression mode                         : Lossless
  142. Stream size                              : 125 KiB (0%)
  143. Title                                    : CHS for Mandarin
  144. Language                                 : Chinese
  145. Default                                  : No
  146. Forced                                   : No
  147. Text #4
  148. ID                                       : 8
  149. ID in the original source medium         : 4608 (0x1200)
  150. Format                                   : PGS
  151. Muxing mode                              : zlib
  152. Codec ID                                 : S_HDMV/PGS
  153. Codec ID/Info                            : Picture based subtitle format used on BDs/HD-DVDs
  154. Duration                                 : 1 h 55 min
  155. Bit rate                                 : 45.0 kb/s
  156. Count of elements                        : 3596
  157. Stream size                              : 37.3 MiB (1%)
  158. Language                                 : Japanese
  159. Default                                  : No
  160. Forced                                   : No
  161. Original source medium                   : Blu-ray
  162. Menu
  163. 00:00:00.000                             : en:Chapter 01
  164. 00:10:12.361                             : en:Chapter 02
  165. 00:17:11.196                             : en:Chapter 03
  166. 00:23:20.148                             : en:Chapter 04
  167. 00:27:44.954                             : en:Chapter 05
  168. 00:35:34.340                             : en:Chapter 06
  169. 00:42:05.981                             : en:Chapter 07
  170. 00:51:21.536                             : en:Chapter 08
  171. 00:57:58.600                             : en:Chapter 09
  172. 01:04:17.603                             : en:Chapter 10
  173. 01:10:39.443                             : en:Chapter 11
  174. 01:16:04.476                             : en:Chapter 12
  175. 01:23:38.304                             : en:Chapter 13
  176. 01:28:35.018                             : en:Chapter 14
  177. 01:40:17.052                             : en:Chapter 15
  178. 01:52:01.339                             : en:Chapter 16
复制代码



保举请利用qBittorrent,utorrent,transmission等标准BT软件下载!以获得最快速度。奉求保种!





回复

使用道具 举报

蓝光币
230
发表于 2022-7-29 23:14:12 | 显示全部楼层

楼主太厉害了!楼主,电影应该很好看我觉得蓝光电影网真是个好地方!
回复 支持 反对

使用道具 举报

懒得打字嘛,点击右侧快捷回复 【右侧内容,后台自定义】
您需要登录后才可以回帖 登录 | 立即加入

本版积分规则

Archiver|小黑屋| 蓝光电影网 |网站地图

Copyright © 2021 Comsenz Inc. Powered by 蓝光电影网

蓝光电影网

本站内容由用户自主分享和转载自互联网,转载目的在于传递更多信息,并不代表本网赞同其观点和对其真实性负责。

如有侵权、违反国家法律政策行为,请联系我们,我们会第一时间及时清除和处理!

举报反馈邮箱:[email protected]

快速回复 返回顶部 返回列表