找回密码

蓝光电影网

查看: 50|回复: 0

[喜剧] 小顽童 Bebes.Kids.1992.1080p.BluRay.x264.DD5.1-HANDJOB 5.27GB

[复制链接]
蓝光币
886
发表于 2022-7-28 08:30:12 | 显示全部楼层 |阅读模式


◎标  题 小顽童
◎译  名 小捣鬼 / 小顽童 / 小捣鬼
◎片  名 Bébé's Kids
◎年  代 1992
◎产  地 美国
◎类  别 笑剧 / 动画 / 歌舞 / 奇异
◎语  言 英语
◎上映日期 1992-07-31
◎IMDb评分 5.8/10 (5060人评价)
◎IMDb链接 https://www.imdb.com/title/tt0103783/
◎豆瓣评分 8.5/10 (126人评价)
◎豆瓣链接 https://movie.douban.com/subject/1302676/
◎片  长 70 分钟 / USA: 72 分钟
◎导  演 布鲁斯·W·史姑娘 Bruce W. Smith
◎编  剧 罗宾·哈里斯 Robin Harris
       雷吉纳·哈德林 Reginald Hudlin
◎演  员 罗宾·哈里斯 Robin Harris
       费松·拉夫 Faizon Love
       瓦妮莎·贝尔·卡洛威 Vanessa Bell Calloway
       马克泽·休斯顿 Marques Houston
       托恩·洛茨 Tone Loc
       Nell Carter Nell Carter
       约翰·威瑟斯朋 John Witherspoon
       Chino 'Fats' Williams Chino 'Fats' Williams
       Rodney Winfield Rodney Winfield
       乔治·华莱士 George Wallace
       苏珊·锡洛 Susan Silo
       彼得·雷纳迪 Peter Renaday
       Michelle Davison Michelle Davison
       Arvie Lowe Jr. Arvie Lowe Jr.
       Kerrigan Mahan Kerrigan Mahan
       菲利普·格拉瑟 Phillip Glasser
       Daamen J. Krall Daamen J. Krall
       瑞奇·雷托 Rich Little
       路易·安德森 Louie Anderson
       Greg Finley Greg Finley
       汤姆·埃沃雷特 Tom Everett
       J.D. Hall J.D. Hall
◎标  签 笑剧 / 美国 / 小顽童 / 搞笑 / 动画 / 儿童 / 老电影 / 小捣鬼
◎简  介

    当Robin遇上了心爱的Jamika他感应自己到了天堂。可是当他遇上了她的朋友BeBe的孩子,他晓得他跌到天堂了。BeBe的孩子非常使人厌恶,是他见过的一切孩子里最令他疾苦的.....
  1. Video
  2. ID                                       : 1
  3. Format                                   : AVC
  4. Format/Info                              : Advanced Video Codec
  5. Format profile                           : [email protected]
  6. Format settings                          : CABAC / 4 Ref Frames
  7. Format settings, CABAC                   : Yes
  8. Format settings, Reference frames        : 4 frames
  9. Codec ID                                 : V_MPEG4/ISO/AVC
  10. Duration                                 : 1 h 12 min
  11. Bit rate                                 : 9 735 kb/s
  12. Width                                    : 1 918 pixels
  13. Height                                   : 1 078 pixels
  14. Display aspect ratio                     : 16:9
  15. Frame rate mode                          : Constant
  16. Frame rate                               : 23.976 (24000/1001/189150) FPS
  17. Color space                              : YUV
  18. Chroma subsampling                       : 4:2:0
  19. Bit depth                                : 8 bits
  20. Scan type                                : Progressive
  21. Bits/(Pixel*Frame)                       : 0.196
  22. Stream size                              : 4.94 GiB (94%)
  23. Writing library                          : x264 core 164 r3065 ae03d92
  24. Encoding settings                        : cabac=1 / ref=4 / deblock=1:-3:-3 / analyse=0x3:0x133 / me=umh / subme=10 / psy=1 / psy_rd=1.00:0.00 / mixed_ref=1 / me_range=32 / chroma_me=1 / trellis=2 / 8x8dct=1 / cqm=0 / deadzone=21,11 / fast_pskip=0 / chroma_qp_offset=-2 / threads=34 / lookahead_threads=8 / sliced_threads=0 / nr=0 / decimate=0 / interlaced=0 / bluray_compat=0 / constrained_intra=0 / bframes=16 / b_pyramid=2 / b_adapt=2 / b_bias=0 / direct=3 / weightb=1 / open_gop=0 / weightp=2 / keyint=240 / keyint_min=24 / scenecut=40 / intra_refresh=0 / rc_lookahead=60 / rc=crf / mbtree=0 / crf=23.0 / qcomp=0.60 / qpmin=0 / qpmax=69 / qpstep=4 / vbv_maxrate=62500 / vbv_bufsize=78125 / crf_max=0.0 / nal_hrd=none / filler=0 / ip_ratio=1.40 / pb_ratio=1.30 / aq=2:0.80
  25. Default                                  : Yes
  26. Forced                                   : No
  27. Color range                              : Limited
  28. Color primaries                          : BT.709
  29. Transfer characteristics                 : BT.709
  30. Matrix coefficients                      : BT.709
  31. Audio
  32. ID                                       : 2
  33. Format                                   : AC-3
  34. Format/Info                              : Audio Coding 3
  35. Commercial name                          : Dolby Digital
  36. Codec ID                                 : A_AC3
  37. Duration                                 : 1 h 12 min
  38. Bit rate mode                            : Constant
  39. Bit rate                                 : 640 kb/s
  40. Channel(s)                               : 6 channels
  41. Channel layout                           : L R C LFE Ls Rs
  42. Sampling rate                            : 48.0 kHz
  43. Frame rate                               : 31.250 FPS (1536 SPF)
  44. Compression mode                         : Lossy
  45. Stream size                              : 333 MiB (6%)
  46. Language                                 : English
  47. Service kind                             : Complete Main
  48. Default                                  : Yes
  49. Forced                                   : No
  50. Text
  51. ID                                       : 3
  52. Format                                   : UTF-8
  53. Codec ID                                 : S_TEXT/UTF8
  54. Codec ID/Info                            : UTF-8 Plain Text
  55. Duration                                 : 1 h 12 min
  56. Bit rate                                 : 77 b/s
  57. Frame rate                               : 0.290 FPS
  58. Count of elements                        : 1261
  59. Stream size                              : 41.0 KiB (0%)
  60. Language                                 : English
  61. Default                                  : No
  62. Forced                                   : No
  63. Menu
  64. 00:00:00.000                             : en:Chapter 1
  65. 00:03:19.866                             : en:Chapter 2
  66. 00:07:41.836                             : en:Chapter 3
  67. 00:14:49.972                             : en:Chapter 4
  68. 00:17:51.779                             : en:Chapter 5
  69. 00:21:53.312                             : en:Chapter 6
  70. 00:26:09.151                             : en:Chapter 7
  71. 00:32:58.018                             : en:Chapter 8
  72. 00:36:47.205                             : en:Chapter 9
  73. 00:42:01.602                             : en:Chapter 10
  74. 00:51:19.159                             : en:Chapter 11
  75. 00:57:43.794                             : en:Chapter 12
  76. 01:01:00.699                             : en:Chapter 13
  77. 01:06:26.274                             : en:Chapter 14
复制代码






                                       
                                       

                                       
                                       
                                       




回复

使用道具 举报

懒得打字嘛,点击右侧快捷回复 【右侧内容,后台自定义】
您需要登录后才可以回帖 登录 | 立即加入

本版积分规则

Archiver|小黑屋| 蓝光电影网 |网站地图

Copyright © 2021 Comsenz Inc. Powered by 蓝光电影网

蓝光电影网

本站内容由用户自主分享和转载自互联网,转载目的在于传递更多信息,并不代表本网赞同其观点和对其真实性负责。

如有侵权、违反国家法律政策行为,请联系我们,我们会第一时间及时清除和处理!

举报反馈邮箱:[email protected]

快速回复 返回顶部 返回列表