找回密码

蓝光电影网

查看: 10|回复: 0

[剧情] 孔雀天堂 The.Peacocks.Paradise.2021.ITALIAN.1080p.WEBRip.AAC2.0.x264-KUCHU 3.62GB

[复制链接]
蓝光币
886
发表于 2022-7-28 09:29:25 | 显示全部楼层 |阅读模式


◎标  题 孔雀天堂
◎译  名 Di Lotta e d'Amore
◎片  名 Il paradiso del pavone
◎年  代 2021
◎产  地 意大利
◎类  别 剧情
◎语  言 意大利语
◎上映日期 2021-09-05(威尼斯电影节)
◎IMDb评分 5.5/10 (66人评价)
◎IMDb链接 https://www.imdb.com/title/tt13757758/
◎豆瓣链接 https://movie.douban.com/subject/35317540/
◎导  演 劳拉·比斯普里 Laura Bispuri
◎编  剧 劳拉·比斯普里 Laura Bispuri
◎演  员 多米妮克·桑达 Dominique Sanda
       阿尔芭·罗尔瓦赫尔 Alba Rohrwacher
       玛雅·珊萨 Maya Sansa
       法比齐奥·费拉卡尼 Fabrizio Ferracane
       莱昂纳多·利迪 Leonardo Lidi
       蒂哈娜·拉佐维奇 Tihana Lazovic
       伊勒·维安内罗 Yle Vianello
       安东内拉·坎纳罗齐 Antonella Cannarozzi
◎简  介

  冬季的一天,Nena将家人聚集在海边的屋子庆贺她的生日。每小我都出现在这里:Nena的丈夫Umberto、孩子Vito和Caterina、表亲Isabella、继女Adelina、前任儿子Manfredi和新未婚妻Joian、侄女Alma、管家Lucia和女儿Grazia。然后就是Alma的孔雀Paco,Paco惊奇地爱上了挂在客厅里的一幅画中的鸽子。
  1. Video
  2. ID                                       : 1
  3. Format                                   : AVC
  4. Format/Info                              : Advanced Video Codec
  5. Format profile                           : [email protected]
  6. Format settings                          : CABAC / 4 Ref Frames
  7. Format settings, CABAC                   : Yes
  8. Format settings, Reference frames        : 4 frames
  9. Codec ID                                 : V_MPEG4/ISO/AVC
  10. Duration                                 : 1 h 27 min
  11. Bit rate                                 : 5 580 kb/s
  12. Width                                    : 1 920 pixels
  13. Height                                   : 1 080 pixels
  14. Display aspect ratio                     : 16:9
  15. Frame rate mode                          : Constant
  16. Frame rate                               : 24.000 FPS
  17. Color space                              : YUV
  18. Chroma subsampling                       : 4:2:0
  19. Bit depth                                : 8 bits
  20. Scan type                                : Progressive
  21. Bits/(Pixel*Frame)                       : 0.112
  22. Stream size                              : 3.42 GiB (95%)
  23. Default                                  : Yes
  24. Forced                                   : No
  25. Audio
  26. ID                                       : 2
  27. Format                                   : AAC LC
  28. Format/Info                              : Advanced Audio Codec Low Complexity
  29. Codec ID                                 : A_AAC-2
  30. Duration                                 : 1 h 27 min
  31. Bit rate                                 : 317 kb/s
  32. Channel(s)                               : 2 channels
  33. Channel layout                           : L R
  34. Sampling rate                            : 48.0 kHz
  35. Frame rate                               : 46.875 FPS (1024 SPF)
  36. Compression mode                         : Lossy
  37. Stream size                              : 199 MiB (5%)
  38. Language                                 : Italian
  39. Default                                  : Yes
  40. Forced                                   : No
  41. Text #1
  42. ID                                       : 3
  43. Format                                   : UTF-8
  44. Codec ID                                 : S_TEXT/UTF8
  45. Codec ID/Info                            : UTF-8 Plain Text
  46. Duration                                 : 1 h 20 min
  47. Bit rate                                 : 42 b/s
  48. Frame rate                               : 0.179 FPS
  49. Count of elements                        : 864
  50. Stream size                              : 24.8 KiB (0%)
  51. Language                                 : English
  52. Default                                  : Yes
  53. Forced                                   : No
  54. Text #2
  55. ID                                       : 4
  56. Format                                   : UTF-8
  57. Codec ID                                 : S_TEXT/UTF8
  58. Codec ID/Info                            : UTF-8 Plain Text
  59. Duration                                 : 1 h 20 min
  60. Bit rate                                 : 45 b/s
  61. Frame rate                               : 0.179 FPS
  62. Count of elements                        : 865
  63. Stream size                              : 26.6 KiB (0%)
  64. Language                                 : Spanish
  65. Default                                  : No
  66. Forced                                   : No
复制代码







                                       
                                       

                                       
                                       
                                       




回复

使用道具 举报

懒得打字嘛,点击右侧快捷回复 【右侧内容,后台自定义】
您需要登录后才可以回帖 登录 | 立即加入

本版积分规则

Archiver|小黑屋| 蓝光电影网 |网站地图

Copyright © 2021 Comsenz Inc. Powered by 蓝光电影网

蓝光电影网

本站内容由用户自主分享和转载自互联网,转载目的在于传递更多信息,并不代表本网赞同其观点和对其真实性负责。

如有侵权、违反国家法律政策行为,请联系我们,我们会第一时间及时清除和处理!

举报反馈邮箱:[email protected]

快速回复 返回顶部 返回列表