找回密码

蓝光电影网

查看: 17|回复: 0

[其他] 林肯的最后一天 Lincolns.Last.Day.2015.1080p.AMZN.WEBRip.DDP2.0.x264-THR 3.51GB

[复制链接]
蓝光币
886
发表于 2022-7-28 09:45:11 | 显示全部楼层 |阅读模式


◎标  题 林肯的最初一天
◎片  名 Lincoln's Last Day
◎年  代 2015
◎产  地 美国
◎类  别 记载片
◎语  言 英语
◎上映日期 2015-04-13(美国)
◎IMDb评分 8.4/10 (29人评价)
◎IMDb链接 https://www.imdb.com/title/tt4566244/
◎豆瓣链接 https://movie.douban.com/subject/26366746/
◎片  长 2940
◎演  员 威廉·麦克·麦库洛 William Mark McCullough
        Clay Moncure
       Bill Ratner Bill Ratner
       道格·沃克 Doug Walker
       Caitlin Wright Caitlin Wright
◎简  介

  We all know the main story of Abraham Lincoln's death, how he was killed, where it took place, and who pulled the trigger. But what exactly happened during the last day of his life? Relive April 14, 1865, as we track the hours of the day that shocked the world, following both assassin and victim on separate paths that would ultimately converge at the Presidential Box at Ford's ...
  1. Video
  2. ID                                       : 1
  3. Format                                   : AVC
  4. Format/Info                              : Advanced Video Codec
  5. Format profile                           : [email protected]
  6. Format settings                          : CABAC / 4 Ref Frames
  7. Format settings, CABAC                   : Yes
  8. Format settings, Reference frames        : 4 frames
  9. Codec ID                                 : V_MPEG4/ISO/AVC
  10. Duration                                 : 51 min 6 s
  11. Bit rate mode                            : Constant
  12. Bit rate                                 : 10 000 kb/s
  13. Width                                    : 1 920 pixels
  14. Height                                   : 1 080 pixels
  15. Display aspect ratio                     : 16:9
  16. Frame rate mode                          : Constant
  17. Frame rate                               : 29.970 (30000/1001/189150) FPS
  18. Color space                              : YUV
  19. Chroma subsampling                       : 4:2:0
  20. Bit depth                                : 8 bits
  21. Scan type                                : Progressive
  22. Bits/(Pixel*Frame)                       : 0.161
  23. Stream size                              : 3.43 GiB (98%)
  24. Default                                  : Yes
  25. Forced                                   : No
  26. Color range                              : Limited
  27. Color primaries                          : BT.709
  28. Transfer characteristics                 : BT.709
  29. Matrix coefficients                      : BT.709
  30. Audio
  31. ID                                       : 2
  32. Format                                   : E-AC-3
  33. Format/Info                              : Enhanced AC-3
  34. Commercial name                          : Dolby Digital Plus
  35. Codec ID                                 : A_EAC3
  36. Duration                                 : 51 min 6 s
  37. Bit rate mode                            : Constant
  38. Bit rate                                 : 224 kb/s
  39. Channel(s)                               : 2 channels
  40. Channel layout                           : L R
  41. Sampling rate                            : 48.0 kHz
  42. Frame rate                               : 31.250 FPS (1536 SPF)
  43. Compression mode                         : Lossy
  44. Stream size                              : 81.9 MiB (2%)
  45. Title                                    : English
  46. Language                                 : English
  47. Service kind                             : Complete Main
  48. Default                                  : Yes
  49. Forced                                   : No
  50. Text #1
  51. ID                                       : 3
  52. Format                                   : UTF-8
  53. Codec ID                                 : S_TEXT/UTF8
  54. Codec ID/Info                            : UTF-8 Plain Text
  55. Duration                                 : 50 min 54 s
  56. Bit rate                                 : 92 b/s
  57. Frame rate                               : 0.308 FPS
  58. Count of elements                        : 942
  59. Stream size                              : 34.6 KiB (0%)
  60. Title                                    : English
  61. Language                                 : English
  62. Default                                  : No
  63. Forced                                   : No
  64. Text #2
  65. ID                                       : 4
  66. Format                                   : UTF-8
  67. Codec ID                                 : S_TEXT/UTF8
  68. Codec ID/Info                            : UTF-8 Plain Text
  69. Duration                                 : 50 min 54 s
  70. Bit rate                                 : 81 b/s
  71. Frame rate                               : 0.281 FPS
  72. Count of elements                        : 859
  73. Stream size                              : 30.2 KiB (0%)
  74. Title                                    : Português (Brasil)
  75. Language                                 : Portuguese
  76. Default                                  : No
  77. Forced                                   : No
  78. Text #3
  79. ID                                       : 5
  80. Format                                   : UTF-8
  81. Codec ID                                 : S_TEXT/UTF8
  82. Codec ID/Info                            : UTF-8 Plain Text
  83. Duration                                 : 50 min 56 s
  84. Bit rate                                 : 96 b/s
  85. Frame rate                               : 0.297 FPS
  86. Count of elements                        : 909
  87. Stream size                              : 36.2 KiB (0%)
  88. Title                                    : Espa?ol
  89. Language                                 : Spanish
  90. Default                                  : No
  91. Forced                                   : No
复制代码





                                       
                                       

                                       
                                       
                                       




回复

使用道具 举报

懒得打字嘛,点击右侧快捷回复 【右侧内容,后台自定义】
您需要登录后才可以回帖 登录 | 立即加入

本版积分规则

Archiver|小黑屋| 蓝光电影网 |网站地图

Copyright © 2021 Comsenz Inc. Powered by 蓝光电影网

蓝光电影网

本站内容由用户自主分享和转载自互联网,转载目的在于传递更多信息,并不代表本网赞同其观点和对其真实性负责。

如有侵权、违反国家法律政策行为,请联系我们,我们会第一时间及时清除和处理!

举报反馈邮箱:[email protected]

快速回复 返回顶部 返回列表