找回密码

蓝光电影网

查看: 106|回复: 1

[剧情] 大地之歌 Pather.Panchali.1955.iNTERNAL.1080p.BluRay.x264-YAMG 18.32GB

[复制链接]
蓝光币
1020
发表于 2022-7-28 12:55:00 | 显示全部楼层 |阅读模式


◎译  名 大地之歌 / 亨衢之歌 / 门路之歌 / 小路之歌 / 潘查理父亲 / Pather Panchali / Song of the Little Road / The Lament of the Path / The Saga of the Road
◎片  名 ???? ???????
◎年  代 1955
◎产  地 印度
◎类  别 剧情
◎语  言 孟加拉语
◎上映日期 1955-08-26
◎IMDb链接 https://www.imdb.com/title/tt0048473/
◎豆瓣评分 8.9/10 (8594人评价)
◎豆瓣链接 https://movie.douban.com/subject/1306019/
◎片  长 India: 122 分钟(within Bengal)
◎导  演 萨蒂亚吉特·雷伊 Satyajit Ray (id:1048247)
◎编  剧 比耶迪胡山·班德约帕德赫亚 Bibhutibhushan Bandyopadhyay (id:1051290)
       萨蒂亚吉特·雷伊 Satyajit Ray (id:1048247)
◎演  员 卡奴·班纳杰 Kanu Bannerjee (id:1358507)
       卡鲁娜·班纳杰 Karuna Bannerjee (id:1277830)
       楚尼巴拉·德芙 Chunibala Devi (id:1358508)
       尤玛·戴斯·固普塔 Uma Das Gupta (id:1358509)
       苏比·班纳杰 Subir Bannergee (id:1314421)
       伦基·班纳杰 Runki Banerjee (id:1358510)
       雷巴·德芙 Reba Devi (id:1358511)
       阿帕纳·德芙 Aparna Devi (id:1358512)
       突利斯·查克拉波提 Tulsi Chakraborty (id:1355955)
       拉威·香卡 Ravi Shankar (id:1000542)
       苏布拉塔·米特拉 Subrata Mitra (id:1029877)
       班塞·查德拉古普塔 Bansi Chandragupta (id:1280458)
◎简  介

  在20世纪初印度孟加拉的一个小村落里。生活的艰辛使得村里贫苦人家布满了苦闷、忧愁与反面。哈里哈尔写了一首首诗,一个个剧本,但处处碰鼻,没法出书。六年曩昔了,哈里哈尔家的屋子加倍破败不胜,贫困一步不舍地陪伴着他们。无穷无尽的懊恼,纠缠着他们。富人丢了工具,就赖杜尔加偷走了,虽然妻子萨尔博加娅不愿忍受这类欺侮,却也只能拿孩子撒气。哈里哈尔希望经过一鸣惊人来重振早已败落的“门第”,可是,他每月八个卢比的微薄支出,以及繁重的家庭负担,致使他始终没法实现其各类美好的计划,就连保持家里人填饱肚子也做不到。他只好去异地异乡寻觅一条前途,进城去赚了一笔血汗钱,谁料回抵家时,期待他的却是庞大的灾难:狂风雨把屋子冲塌了,十二岁的女儿杜尔加也病死了,萨尔博加娅痛哭起来。见此惨痛情形,哈里哈尔只好率领着妻儿分开故乡,去另谋生路,只要杜尔加长逝在这里。
◎获奖情况 (共3项)
  第9届戛纳电影节 (1956)
  主比赛单元 金棕榈奖(提名)
   └──萨蒂亚吉特·雷伊 (id:1048247)
  OCIC Award Special Mention
   └──萨蒂亚吉特·雷伊 (id:1048247)
  Best Human Document
   └──萨蒂亚吉特·雷伊 (id:1048247)
  1. Video
  2. ID                                       : 1
  3. Format                                   : AVC
  4. Format/Info                              : Advanced Video Codec
  5. Format profile                           : [email protected]
  6. Format settings                          : CABAC / 5 Ref Frames
  7. Format settings, CABAC                   : Yes
  8. Format settings, Reference frames        : 5 frames
  9. Codec ID                                 : V_MPEG4/ISO/AVC
  10. Duration                                 : 2 h 5 min
  11. Bit rate                                 : 20.3 Mb/s
  12. Width                                    : 1 480 pixels
  13. Height                                   : 1 080 pixels
  14. Display aspect ratio                     : 1.370
  15. Frame rate mode                          : Constant
  16. Frame rate                               : 23.976 (24000/1001/189150) FPS
  17. Color space                              : YUV
  18. Chroma subsampling                       : 4:2:0
  19. Bit depth                                : 8 bits
  20. Scan type                                : Progressive
  21. Bits/(Pixel*Frame)                       : 0.530
  22. Stream size                              : 17.8 GiB (97%)
  23. Writing library                          : x264 core 164 r3094 bfc87b7
  24. Encoding settings                        : cabac=1 / ref=5 / deblock=1:-3:-3 / analyse=0x3:0x133 / me=umh / subme=10 / psy=1 / psy_rd=1.00:0.00 / mixed_ref=1 / me_range=32 / chroma_me=1 / trellis=2 / 8x8dct=1 / cqm=0 / deadzone=21,11 / fast_pskip=0 / chroma_qp_offset=-2 / threads=24 / lookahead_threads=4 / sliced_threads=0 / nr=0 / decimate=0 / interlaced=0 / bluray_compat=0 / constrained_intra=0 / bframes=8 / b_pyramid=2 / b_adapt=2 / b_bias=0 / direct=3 / weightb=1 / open_gop=0 / weightp=2 / keyint=250 / keyint_min=23 / scenecut=40 / intra_refresh=0 / rc=crf / mbtree=0 / crf=17.0 / qcomp=0.60 / qpmin=0 / qpmax=69 / qpstep=4 / ip_ratio=1.40 / pb_ratio=1.30 / aq=3:0.60
  25. Language                                 : English
  26. Default                                  : Yes
  27. Forced                                   : No
  28. Color range                              : Limited
  29. Matrix coefficients                      : BT.709

  30. Audio
  31. ID                                       : 2
  32. Format                                   : FLAC
  33. Format/Info                              : Free Lossless Audio Codec
  34. Codec ID                                 : A_FLAC
  35. Duration                                 : 2 h 5 min
  36. Bit rate mode                            : Variable
  37. Bit rate                                 : 526 kb/s
  38. Channel(s)                               : 1 channel
  39. Channel layout                           : C
  40. Sampling rate                            : 48.0 kHz
  41. Frame rate                               : 11.719 FPS (4096 SPF)
  42. Bit depth                                : 24 bits
  43. Compression mode                         : Lossless
  44. Stream size                              : 474 MiB (3%)
  45. Title                                    : Bengali
  46. Writing library                          : libFLAC 1.3.3 (UTC 2019-08-04)
  47. Language                                 : Bengali
  48. Default                                  : Yes
  49. Forced                                   : No

  50. Text #1
  51. ID                                       : 3
  52. Format                                   : UTF-8
  53. Codec ID                                 : S_TEXT/UTF8
  54. Codec ID/Info                            : UTF-8 Plain Text
  55. Duration                                 : 2 h 4 min
  56. Bit rate                                 : 29 b/s
  57. Count of elements                        : 908
  58. Stream size                              : 26.7 KiB (0%)
  59. Title                                    : English Forced
  60. Language                                 : English
  61. Default                                  : Yes
  62. Forced                                   : Yes

  63. Text #2
  64. ID                                       : 4
  65. Format                                   : PGS
  66. Muxing mode                              : zlib
  67. Codec ID                                 : S_HDMV/PGS
  68. Codec ID/Info                            : Picture based subtitle format used on BDs/HD-DVDs
  69. Duration                                 : 2 h 4 min
  70. Bit rate                                 : 25.5 kb/s
  71. Count of elements                        : 1816
  72. Stream size                              : 22.7 MiB (0%)
  73. Title                                    : English Forced PGS
  74. Language                                 : English
  75. Default                                  : No
  76. Forced                                   : No

  77. Menu
  78. 00:00:00.000                             : :Chapter 01
  79. 00:02:35.489                             : :Chapter 02
  80. 00:07:02.505                             : :Chapter 03
  81. 00:13:10.581                             : :Chapter 04
  82. 00:15:47.905                             : :Chapter 05
  83. 00:20:19.969                             : :Chapter 06
  84. 00:27:00.994                             : :Chapter 07
  85. 00:31:35.477                             : :Chapter 08
  86. 00:37:21.030                             : :Chapter 09
  87. 00:41:30.196                             : :Chapter 10
  88. 00:49:17.621                             : :Chapter 11
  89. 00:57:01.418                             : :Chapter 12
  90. 01:03:51.786                             : :Chapter 13
  91. 01:10:22.009                             : :Chapter 14
  92. 01:14:16.494                             : :Chapter 15
  93. 01:18:23.365                             : :Chapter 16
  94. 01:22:17.558                             : :Chapter 17
  95. 01:29:18.812                             : :Chapter 18
  96. 01:32:20.452                             : :Chapter 19
  97. 01:34:51.352                             : :Chapter 20
  98. 01:39:06.065                             : :Chapter 21
  99. 01:43:11.685                             : :Chapter 22
  100. 01:50:17.361                             : :Chapter 23
  101. 01:57:36.800                             : :Chapter 24
复制代码





                                       
                                       

                                       
                                       
                                       




回复

使用道具 举报

蓝光币
179
发表于 2022-7-28 19:14:32 | 显示全部楼层
楼主发贴辛苦了,谢谢楼主分享!我觉得蓝光电影网是注册对了!
回复 支持 反对

使用道具 举报

懒得打字嘛,点击右侧快捷回复 【右侧内容,后台自定义】
您需要登录后才可以回帖 登录 | 立即加入

本版积分规则

Archiver|小黑屋| 蓝光电影网 |网站地图

Copyright © 2021 Comsenz Inc. Powered by 蓝光电影网

蓝光电影网

本站内容由用户自主分享和转载自互联网,转载目的在于传递更多信息,并不代表本网赞同其观点和对其真实性负责。

如有侵权、违反国家法律政策行为,请联系我们,我们会第一时间及时清除和处理!

举报反馈邮箱:[email protected]

快速回复 返回顶部 返回列表