找回密码

蓝光电影网

查看: 181|回复: 2

[动作] 最后的受害者 The.Last.Victim.2021.1080p.BluRay.REMUX.AVC.DTS-HD.MA.5.1-FGT 18.77GB

[复制链接]
蓝光币
1022
发表于 2022-7-28 13:08:27 | 显示全部楼层 |阅读模式


◎译  名 最初的受害者
◎片  名 The Last Victim
◎年  代 2021
◎产  地 美国
◎类  别 行动 / 惊悚 / 犯罪 / 西部
◎语  言 英语
◎上映日期 2021-09-16(Internationales Filmfest Oldenburg)
◎IMDb链接 https://www.imdb.com/title/tt11242718/
◎豆瓣链接 https://movie.douban.com/subject/35869890/
◎片  长 103分钟
◎简  介

  The Last Victim is a Neo Western thriller set in the American southwest, following Sheriff Hickey trying to solve the worst case he has seen in his small town, likely caused by a violent local gang led by a fearsome criminal.
  1. Video
  2. ID                                       : 1
  3. ID in the original source medium         : 4113 (0x1011)
  4. Format                                   : AVC
  5. Format/Info                              : Advanced Video Codec
  6. Format profile                           : [email protected]
  7. Format settings                          : CABAC / 4 Ref Frames
  8. Format settings, CABAC                   : Yes
  9. Format settings, Reference frames        : 4 frames
  10. Codec ID                                 : V_MPEG4/ISO/AVC
  11. Duration                                 : 1 h 51 min
  12. Bit rate mode                            : Variable
  13. Bit rate                                 : 20.6 Mb/s
  14. Maximum bit rate                         : 36.0 Mb/s
  15. Width                                    : 1 920 pixels
  16. Height                                   : 1 080 pixels
  17. Display aspect ratio                     : 16:9
  18. Frame rate mode                          : Constant
  19. Frame rate                               : 23.976 (24000/1001/189150) FPS
  20. Color space                              : YUV
  21. Chroma subsampling                       : 4:2:0
  22. Bit depth                                : 8 bits
  23. Scan type                                : Progressive
  24. Bits/(Pixel*Frame)                       : 0.415
  25. Stream size                              : 16.0 GiB (85%)
  26. Language                                 : English
  27. Default                                  : No
  28. Forced                                   : No
  29. Original source medium                   : Blu-ray
  30. Audio #1
  31. ID                                       : 2
  32. ID in the original source medium         : 4352 (0x1100)
  33. Format                                   : DTS XLL
  34. Format/Info                              : Digital Theater Systems
  35. Commercial name                          : DTS-HD Master Audio
  36. Codec ID                                 : A_DTS
  37. Duration                                 : 1 h 51 min
  38. Bit rate mode                            : Variable
  39. Bit rate                                 : 3 328 kb/s
  40. Channel(s)                               : 6 channels
  41. Channel layout                           : C L R Ls Rs LFE
  42. Sampling rate                            : 48.0 kHz
  43. Frame rate                               : 93.750 FPS (512 SPF)
  44. Bit depth                                : 24 bits
  45. Compression mode                         : Lossless
  46. Stream size                              : 2.59 GiB (14%)
  47. Title                                    : DTS-HD MA 5.1
  48. Language                                 : English
  49. Default                                  : Yes
  50. Forced                                   : No
  51. Original source medium                   : Blu-ray
  52. Audio #2
  53. ID                                       : 3
  54. ID in the original source medium         : 4353 (0x1101)
  55. Format                                   : AC-3
  56. Format/Info                              : Audio Coding 3
  57. Commercial name                          : Dolby Digital
  58. Codec ID                                 : A_AC3
  59. Duration                                 : 1 h 51 min
  60. Bit rate mode                            : Constant
  61. Bit rate                                 : 192 kb/s
  62. Channel(s)                               : 2 channels
  63. Channel layout                           : L R
  64. Sampling rate                            : 48.0 kHz
  65. Frame rate                               : 31.250 FPS (1536 SPF)
  66. Compression mode                         : Lossy
  67. Stream size                              : 153 MiB (1%)
  68. Title                                    : DD 2.0
  69. Language                                 : English
  70. Service kind                             : Complete Main
  71. Default                                  : No
  72. Forced                                   : No
  73. Original source medium                   : Blu-ray
  74. Text #1
  75. ID                                       : 4
  76. Format                                   : UTF-8
  77. Codec ID                                 : S_TEXT/UTF8
  78. Codec ID/Info                            : UTF-8 Plain Text
  79. Duration                                 : 1 h 44 min
  80. Bit rate                                 : 38 b/s
  81. Count of elements                        : 1010
  82. Stream size                              : 29.6 KiB (0%)
  83. Language                                 : English
  84. Default                                  : Yes
  85. Forced                                   : No
  86. Text #2
  87. ID                                       : 5
  88. Format                                   : UTF-8
  89. Codec ID                                 : S_TEXT/UTF8
  90. Codec ID/Info                            : UTF-8 Plain Text
  91. Duration                                 : 1 h 46 min
  92. Bit rate                                 : 40 b/s
  93. Count of elements                        : 1201
  94. Stream size                              : 31.8 KiB (0%)
  95. Title                                    : SDH
  96. Language                                 : English
  97. Default                                  : No
  98. Forced                                   : No
  99. Text #3
  100. ID                                       : 6
  101. ID in the original source medium         : 4608 (0x1200)
  102. Format                                   : PGS
  103. Muxing mode                              : zlib
  104. Codec ID                                 : S_HDMV/PGS
  105. Codec ID/Info                            : Picture based subtitle format used on BDs/HD-DVDs
  106. Duration                                 : 1 h 46 min
  107. Bit rate                                 : 18.0 kb/s
  108. Count of elements                        : 2426
  109. Stream size                              : 13.8 MiB (0%)
  110. Language                                 : English
  111. Default                                  : No
  112. Forced                                   : No
  113. Original source medium                   : Blu-ray
  114. Menu
  115. 00:00:00.000                             : en:Chapter 01
  116. 00:15:32.473                             : en:Chapter 02
  117. 00:32:13.139                             : en:Chapter 03
  118. 00:44:33.170                             : en:Chapter 04
  119. 01:01:03.868                             : en:Chapter 05
  120. 01:13:46.046                             : en:Chapter 06
  121. 01:30:53.656                             : en:Chapter 07
  122. 01:44:27.052                             : en:Chapter 08
复制代码







                                       
                                       

                                       
                                       
                                       




回复

使用道具 举报

蓝光币
298
发表于 2022-7-29 23:41:10 | 显示全部楼层

既然你诚信诚意的推荐了,那我就勉为其难的看看吧!蓝光电影网不走平凡路。
回复 支持 反对

使用道具 举报

蓝光币
112
发表于 2022-7-31 17:06:39 | 显示全部楼层
楼主发贴辛苦了,谢谢楼主分享!我觉得蓝光电影网是注册对了!
回复 支持 反对

使用道具 举报

懒得打字嘛,点击右侧快捷回复 【右侧内容,后台自定义】
您需要登录后才可以回帖 登录 | 立即加入

本版积分规则

Archiver|小黑屋| 蓝光电影网 |网站地图

Copyright © 2021 Comsenz Inc. Powered by 蓝光电影网

蓝光电影网

本站内容由用户自主分享和转载自互联网,转载目的在于传递更多信息,并不代表本网赞同其观点和对其真实性负责。

如有侵权、违反国家法律政策行为,请联系我们,我们会第一时间及时清除和处理!

举报反馈邮箱:[email protected]

快速回复 返回顶部 返回列表