找回密码

蓝光电影网

查看: 30|回复: 0

[剧情] 警醒[中文字幕].Jolt.2021.BluRay.1080p.HEVC.10bit.MiniFHD-MOMOHD 6.36GB

[复制链接]
蓝光币
7
发表于 2022-7-29 01:56:26 | 显示全部楼层 |阅读模式


◎标  题 警醒
◎片  名 Jolt
◎年  代 2021
◎产  地 美国
◎类  别 行动 / 惊悚
◎语  言 英语
◎上映日期 2021-07-23(美国)
◎IMDb评分 5.6/10 (25239人评价)
◎IMDb链接 https://www.imdb.com/title/tt10228134/
◎豆瓣评分 5.6/10 (2291人评价)
◎豆瓣链接 https://movie.douban.com/subject/33423676/
◎片  长 91分钟
◎导  演 谭雅·维克斯勒 Tanya Wexler
◎演  员 凯特·贝金赛尔 Kate Beckinsale
       斯坦利·图齐 Stanley Tucci
       鲍比·坎纳瓦尔 Bobby Cannavale
       苏珊·萨兰登 Susan Sarandon
       杰·科特尼 Jai Courtney
       大卫·布拉德利 David Bradley
       拉弗恩·考克斯 Laverne Cox
       克里斯蒂安·布拉辛顿 Christian Brassington
       奥利·普费弗 Ori Pfeffer
       康斯坦丁·格雷戈里 Constantine Gregory
       内森·库珀 Nathan Cooper
       哈里·阿尼奇金 Harry Anichkin
◎标  签 行动 / 凯特·贝金赛尔 / 美国 / 2021 / 美国电影 / 笑剧 / 惊悚 / katebeckinsale
◎简  介
  琳迪这个标致滑稽的女人有一个疾苦的奥秘:由于毕生的、罕有的神经紊乱,她履历了阵发性的狂怒杀人感动,处理方式只要用特别电极装配电自己。在一个惧怕她的希奇状态的天下里,她没法找到爱和联系,终极她信赖了一个汉子,并爱上了他,却发现第二天他被谋杀了。                                    
                                琳迪感应心碎和愤慨,她起头了一个复仇值拉满的使命,寻觅幕后杀手,与此同时,她也被差人作为这个案子的头号怀疑犯追捕着。
  1. ##### MediaInfo ######
  2. General
  3. Unique ID                                : 23607915621713573314751676841849394352 (0x11C2B81B00ED39891668E356761A14B0)
  4. Complete name                            : 警醒.Jolt.2021.BluRay.1080p.HEVC.10bit.MiniFHD-MOMOHD.mkv
  5. Format                                   : Matroska
  6. Format version                           : Version 2
  7. File size                                : 6.36 GiB
  8. Duration                                 : 1 h 31 min
  9. Overall bit rate mode                    : Variable
  10. Overall bit rate                         : 9 954 kb/s
  11. Encoded date                             : UTC 2022-07-06 21:53:53
  12. Writing application                      : mkvmerge v42.0.0 ('Overtime') 64-bit
  13. Writing library                          : libebml v1.3.10 + libmatroska v1.5.2
  14. Video
  15. ID                                       : 1
  16. Format                                   : HEVC
  17. Format/Info                              : High Efficiency Video Coding
  18. Format profile                           : Main [email protected]@Main
  19. Codec ID                                 : V_MPEGH/ISO/HEVC
  20. Duration                                 : 1 h 31 min
  21. Bit rate                                 : 4 871 kb/s
  22. Width                                    : 1 920 pixels
  23. Height                                   : 804 pixels
  24. Display aspect ratio                     : 2.40:1
  25. Frame rate mode                          : Constant
  26. Frame rate                               : 24.000 FPS
  27. Color space                              : YUV
  28. Chroma subsampling                       : 4:2:0
  29. Bit depth                                : 10 bits
  30. Bits/(Pixel*Frame)                       : 0.131
  31. Stream size                              : 3.11 GiB (49%)
  32. Writing library                          : x265 3.4+2-73ca1d7be377:[Windows][GCC 6.3.0][64 bit] 10bit
  33. Encoding settings                        : cpuid=538751111039 / frame-threads=3 / numa-pools=8 / wpp / no-pmode / no-pme / no-psnr / no-ssim / log-level=2 / input-csp=1 / input-res=1920x804 / interlace=0 / total-frames=131755 / level-idc=0 / high-tier=1 / uhd-bd=0 / ref=3 / no-allow-non-conformance / no-repeat-headers / annexb / no-aud / no-hrd / info / hash=0 / no-temporal-layers / no-open-gop / min-keyint=24 / keyint=250 / gop-lookahead=0 / bframes=4 / b-adapt=2 / b-pyramid / bframe-bias=0 / rc-lookahead=20 / lookahead-slices=5 / NTM4NzU=uuDQuD2mJt9fsCf / scenecut=40 / hist-scenecut=0 / radl=0 / no-splice / no-intra-refresh / ctu=64 / min-cu-size=8 / no-rect / no-amp / max-tu-size=32 / tu-inter-depth=1 / tu-intra-depth=1 / limit-tu=0 / rdoq-level=0 / dynamic-rd=0.00 / no-ssim-rd / signhide / no-tskip / nr-intra=0 / nr-inter=0 / no-constrained-intra / no-strong-intra-smoothing / max-merge=3 / limit-refs=1 / no-limit-modes / me=1 / subme=2 / merange=57 / temporal-mvp / no-frame-dup / no-hme / weightp / no-weightb / no-analyze-src-pics / deblock=0:0 / no-sao / no-sao-non-deblock / rd=3 / selective-sao=0 / early-skip / rskip / no-fast-intra / no-tskip-fast / no-cu-lossless / b-intra / no-splitrd-skip / rdpenalty=0 / psy-rd=4.00 / psy-rdoq=0.00 / no-rd-refine / no-lossless / cbqpoffs=0 / crqpoffs=0 / rc=crf / crf=20.5 / qcomp=1.00 / qpstep=4 / stats-write=0 / stats-read=0 / ipratio=1.40 / pbratio=1.30 / aq-mode=2 / aq-strength=1.20 / cutree / zone-count=0 / no-strict-cbr / qg-size=32 / no-rc-grain / qpmax=69 / qpmin=0 / no-const-vbv / sar=1 / overscan=0 / videoformat=5 / range=0 / colorprim=2 / transfer=2 / colormatrix=2 / chromaloc=0 / display-window=0 / cll=0,0 / min-luma=0 / max-luma=1023 / log2-max-poc-lsb=8 / vui-timing-info / vui-hrd-info / slices=1 / no-opt-qp-pps / no-opt-ref-list-length-pps / no-multi-pass-opt-rps / scenecut-bias=0.05 / hist-threshold=0.01 / no-opt-cu-delta-qp / no-aq-motion / no-hdr10 / no-hdr10-opt / no-dhdr10-opt / no-idr-recovery-sei / analysis-reuse-level=0 / analysis-save-reuse-level=0 / analysis-load-reuse-level=0 / scale-factor=0 / refine-intra=0 / refine-inter=0 / refine-mv=1 / refine-ctu-distortion=0 / no-limit-sao / ctu-info=0 / no-lowpass-dct / refine-analysis-type=0 / copy-pic=1 / max-ausize-factor=1.0 / no-dynamic-refine / no-single-sei / no-hevc-aq / no-svt / no-field / qp-adaptation-range=1.00 / no-scenecut-aware-qpconformance-window-offsets / right=0 / bottom=0 / NTM4NzU= / decoder-max-rate=0
  34. Default                                  : Yes
  35. Forced                                   : No
  36. Audio
  37. ID                                       : 2
  38. Format                                   : DTS XLL
  39. Format/Info                              : Digital Theater Systems
  40. Commercial name                          : DTS-HD Master Audio
  41. Codec ID                                 : A_DTS
  42. Duration                                 : 1 h 31 min
  43. Bit rate mode                            : Variable
  44. Bit rate                                 : 4 997 kb/s
  45. Channel(s)                               : 8 channels
  46. Channel layout                           : C L R LFE Lb Rb Lss Rss
  47. Sampling rate                            : 48.0 kHz
  48. Frame rate                               : 93.750 FPS (512 SPF)
  49. Bit depth                                : 24 bits
  50. Compression mode                         : Lossless
  51. Stream size                              : 3.19 GiB (50%)
  52. Language                                 : English
  53. Default                                  : Yes
  54. Forced                                   : No
  55. Text #1
  56. ID                                       : 3
  57. Format                                   : UTF-8
  58. Codec ID                                 : S_TEXT/UTF8
  59. Codec ID/Info                            : UTF-8 Plain Text
  60. Duration                                 : 1 h 24 min
  61. Bit rate                                 : 51 b/s
  62. Count of elements                        : 1340
  63. Stream size                              : 32.1 KiB (0%)
  64. Language                                 : Chinese
  65. Default                                  : Yes
  66. Forced                                   : No
  67. Text #2
  68. ID                                       : 4
  69. Format                                   : UTF-8
  70. Codec ID                                 : S_TEXT/UTF8
  71. Codec ID/Info                            : UTF-8 Plain Text
  72. Duration                                 : 1 h 24 min
  73. Bit rate                                 : 52 b/s
  74. Count of elements                        : 1342
  75. Stream size                              : 32.2 KiB (0%)
  76. Language                                 : Chinese
  77. Default                                  : No
  78. Forced                                   : No
  79. Text #3
  80. ID                                       : 5
  81. Format                                   : PGS
  82. Muxing mode                              : zlib
  83. Codec ID                                 : S_HDMV/PGS
  84. Codec ID/Info                            : Picture based subtitle format used on BDs/HD-DVDs
  85. Duration                                 : 1 h 24 min
  86. Bit rate                                 : 65.3 kb/s
  87. Count of elements                        : 2543
  88. Stream size                              : 39.5 MiB (1%)
  89. Language                                 : Chinese
  90. Default                                  : No
  91. Forced                                   : No
  92. Text #4
  93. ID                                       : 6
  94. Format                                   : PGS
  95. Muxing mode                              : zlib
  96. Codec ID                                 : S_HDMV/PGS
  97. Codec ID/Info                            : Picture based subtitle format used on BDs/HD-DVDs
  98. Duration                                 : 1 h 24 min
  99. Bit rate                                 : 66.2 kb/s
  100. Count of elements                        : 2543
  101. Stream size                              : 40.0 MiB (1%)
  102. Language                                 : Chinese
  103. Default                                  : No
  104. Forced                                   : No
  105. Text #5
  106. ID                                       : 7
  107. Format                                   : PGS
  108. Muxing mode                              : zlib
  109. Codec ID                                 : S_HDMV/PGS
  110. Codec ID/Info                            : Picture based subtitle format used on BDs/HD-DVDs
  111. Duration                                 : 1 h 24 min
  112. Bit rate                                 : 43.2 kb/s
  113. Count of elements                        : 2584
  114. Stream size                              : 26.2 MiB (0%)
  115. Language                                 : English
  116. Default                                  : No
  117. Forced                                   : No
复制代码

















保举请利用qBittorrent,utorrent,transmission等标准BT软件下载!以获得最快速度。奉求保种!





回复

使用道具 举报

懒得打字嘛,点击右侧快捷回复 【右侧内容,后台自定义】
您需要登录后才可以回帖 登录 | 立即加入

本版积分规则

Archiver|小黑屋| 蓝光电影网 |网站地图

Copyright © 2021 Comsenz Inc. Powered by 蓝光电影网

蓝光电影网

本站内容由用户自主分享和转载自互联网,转载目的在于传递更多信息,并不代表本网赞同其观点和对其真实性负责。

如有侵权、违反国家法律政策行为,请联系我们,我们会第一时间及时清除和处理!

举报反馈邮箱:[email protected]

快速回复 返回顶部 返回列表