找回密码

蓝光电影网

查看: 133|回复: 0

[剧情] 热狗行动[简繁英字幕].Hot.Dog.2018.GER.Bluray.1080p.x265.10bit.DDP.5.1-MiniHD 5.09GB

[复制链接]
蓝光币
8
发表于 2022-7-29 01:57:24 | 显示全部楼层 |阅读模式


◎标  题 热狗行动
◎译  名 热狗
◎片  名 Hot Dog
◎年  代 2018
◎产  地 德国
◎类  别 笑剧 / 行动
◎语  言 德语
◎上映日期 2018-01-18(德国)
◎IMDb评分 3.9/10 (1699人评价)
◎IMDb链接 https://www.imdb.com/title/tt6284564/
◎豆瓣评分 5.9/10 (633人评价)
◎豆瓣链接 https://movie.douban.com/subject/27002460/
◎片  长 105分钟
◎导  演 托尔斯滕·孔斯特勒 Torsten Künstler
◎编  剧 卢多维克斯·马林克 Lo Malinke
       特里珀·克兰西 Tripper Clancy
◎演  员 蒂尔·施威格 Til Schweiger
       马提亚斯·施维赫夫 Matthias Schweighöfer
       安妮·薛弗 Anne Schäfer
       丽莎·托马舍夫斯基 Lisa Tomaschewsky
       约阿希姆·保罗·阿斯波克 Joachim Paul Assböck
       海诺·费尔希 Heino Ferch
       萨缪尔·芬齐 Samuel Finzi
       安德烈·赫尼克 André Hennicke
       拉莫娜·库泽-莉比诺 Ramona Kunze-Libnow
       宝拉·保罗 Paula Paul
       海伦娜·皮斯克 Helena Pieske
       梅林·罗斯 Merlin Rose
       蒂姆·维尔德 Tim Wilde
◎标  签 德国 / 笑剧 / 行动 / 2018 / 犯罪 / 德国式诙谐 / 警匪 / 搞笑
◎简  介
  一个是爱一拳头措辞的粗俗警官卢克,一个是害臊的办公室文职员提奥,截然分歧的两名差人必须履历场场喧闹,配合寻觅遭绑架的交际官女儿着落。影片在情节、诙和谐行动排场的处置上以美国同类影片为楷模,其自我嘲讽和政治非正确的玩笑获得好评。施威格和施维赫夫不可是德国成功的明星演员,且他们的热门作品大多特别亲身指导。这部拍摄于柏林的新片导演则是曾与两人结合执导过《红酒烩鸡》和《分手专家》的托尔斯滕•孔斯特勒。 (小易甫字幕组)
  1. ##### MediaInfo ######
  2. General
  3. Unique ID                                : 335852066913556362299551828411009596513 (0xFCAAC1586993FD9355A98193033DFC61)
  4. Complete name                            : Hot.Dog.2018.GER.Bluray.1080p.x265.10bit.DDP.5.1-MiniHD.mkv
  5. Format                                   : Matroska
  6. Format version                           : Version 4
  7. File size                                : 5.09 GiB
  8. Duration                                 : 1 h 45 min
  9. Overall bit rate                         : 6 900 kb/s
  10. Movie name                               : Hot Dog - Blu-ray? FRDS
  11. Encoded date                             : UTC 2021-02-27 09:14:48
  12. Writing application                      : mkvmerge v53.0.0 ('Fool's Gold') 64-bit
  13. Writing library                          : libebml v1.4.1 + libmatroska v1.6.2
  14. Cover                                    : Yes
  15. Attachments                              : cover.jpg
  16. Video
  17. ID                                       : 1
  18. Format                                   : HEVC
  19. Format/Info                              : High Efficiency Video Coding
  20. Format profile                           : Main [email protected]@High
  21. Codec ID                                 : V_MPEGH/ISO/HEVC
  22. Duration                                 : 1 h 45 min
  23. Bit rate                                 : 5 749 kb/s
  24. Width                                    : 1 918 pixels
  25. Height                                   : 800 pixels
  26. Display aspect ratio                     : 2.40:1
  27. Frame rate mode                          : Constant
  28. Frame rate                               : 23.976 (24000/1001/53875) FPS
  29. Color space                              : YUV
  30. Chroma subsampling                       : 4:2:0
  31. Bit depth                                : 10 bits
  32. Bits/(Pixel*Frame)                       : 0.156
  33. Stream size                              : 4.24 GiB (83%)
  34. Writing library                          : x265 3.4+33-606265ac7:[Windows][MSVC 1928][64 bit] 10bit
  35. Encoding settings                        : cpuid=538751111039 / frame-threads=2 / numa-pools=4 / wpp / pmode / no-pme / no-psnr / no-ssim / log-level=2 / input-csp=1 / input-res=1918x800 / interlace=0 / total-frames=151799 / level-idc=0 / high-tier=1 / uhd-bd=0 / ref=4 / no-allow-non-conformance / no-repeat-headers / annexb / no-aud / no-hrd / info / hash=0 / no-temporal-layers / no-open-gop / min-keyint=1 / keyint=250 / gop-lookahead=0 / bframes=6 / b-adapt=2 / b-pyramid / bframe-bias=0 / rc-lookahead=80 / lookahead-slices=0 / NTM4NzU=uuDQuD2mJt9fsCf / scenecut=40 / hist-scenecut=0 / radl=0 / no-splice / no-intra-refresh / ctu=32 / min-cu-size=8 / no-rect / no-amp / max-tu-size=32 / tu-inter-depth=4 / tu-intra-depth=4 / limit-tu=0 / rdoq-level=2 / dynamic-rd=0.00 / no-ssim-rd / signhide / tskip / nr-intra=0 / nr-inter=0 / no-constrained-intra / strong-intra-smoothing / max-merge=5 / limit-refs=0 / no-limit-modes / me=3 / subme=7 / merange=44 / temporal-mvp / no-frame-dup / no-hme / weightp / weightb / no-analyze-src-pics / deblock=-3:-3 / no-sao / no-sao-non-deblock / rd=4 / selective-sao=0 / no-early-skip / no-rskip / no-fast-intra / no-tskip-fast / no-cu-lossless / b-intra / no-splitrd-skip / rdpenalty=0 / psy-rd=1.50 / psy-rdoq=1.00 / no-rd-refine / no-lossless / cbqpoffs=-2 / crqpoffs=-2 / rc=crf / crf=21.0 / qcomp=0.65 / qpstep=4 / stats-write=0 / stats-read=0 / vbv-maxrate=160000 / vbv-bufsize=160000 / vbv-init=0.9 / min-vbv-fullness=50.0 / max-vbv-fullness=80.0 / crf-max=0.0 / crf-min=0.0 / ipratio=1.30 / pbratio=1.20 / aq-mode=1 / aq-strength=1.00 / no-cutree / zone-count=0 / no-strict-cbr / qg-size=8 / no-rc-grain / qpmax=69 / qpmin=0 / no-const-vbv / sar=0 / overscan=0 / videoformat=5 / range=0 / colorprim=1 / transfer=1 / colormatrix=1 / chromaloc=0 / display-window=0 / cll=0,0 / min-luma=0 / max-luma=1023 / log2-max-poc-lsb=8 / vui-timing-info / vui-hrd-info / slices=1 / no-opt-qp-pps / no-opt-ref-list-length-pps / no-multi-pass-opt-rps / scenecut-bias=0.05 / hist-threshold=0.03 / no-opt-cu-delta-qp / no-aq-motion / no-hdr10 / no-hdr10-opt / no-dhdr10-opt / no-idr-recovery-sei / analysis-reuse-level=0 / analysis-save-reuse-level=0 / analysis-load-reuse-level=0 / scale-factor=0 / refine-intra=0 / refine-inter=0 / refine-mv=1 / refine-ctu-distortion=0 / no-limit-sao / ctu-info=0 / no-lowpass-dct / refine-analysis-type=0 / copy-pic=1 / max-ausize-factor=1.0 / no-dynamic-refine / no-single-sei / no-hevc-aq / no-svt / no-field / qp-adaptation-range=1.00 / scenecut-aware-qp=0conformance-window-offsets / right=0 / bottom=0 / NTM4NzU= / decoder-max-rate=0 / no-vbv-live-multi-pass
  36. Default                                  : Yes
  37. Forced                                   : No
  38. Color range                              : Limited
  39. Color primaries                          : BT.709
  40. Transfer characteristics                 : BT.709
  41. Matrix coefficients                      : BT.709
  42. Audio #1
  43. ID                                       : 2
  44. Format                                   : E-AC-3
  45. Format/Info                              : Enhanced AC-3
  46. Commercial name                          : Dolby Digital Plus
  47. Codec ID                                 : A_EAC3
  48. Duration                                 : 1 h 45 min
  49. Bit rate mode                            : Constant
  50. Bit rate                                 : 1 023 kb/s
  51. Channel(s)                               : 6 channels
  52. Channel layout                           : L R C LFE Ls Rs
  53. Sampling rate                            : 48.0 kHz
  54. Frame rate                               : 93.750 FPS (512 SPF)
  55. Compression mode                         : Lossy
  56. Stream size                              : 772 MiB (15%)
  57. Language                                 : German
  58. Service kind                             : Complete Main
  59. Default                                  : Yes
  60. Forced                                   : No
  61. Audio #2
  62. ID                                       : 3
  63. Format                                   : Opus
  64. Codec ID                                 : A_OPUS
  65. Duration                                 : 1 h 45 min
  66. Bit rate                                 : 56.2 kb/s
  67. Channel(s)                               : 2 channels
  68. Channel layout                           : L R
  69. Sampling rate                            : 48.0 kHz
  70. Frame rate                               : 50.000 FPS (960 SPF)
  71. Compression mode                         : Lossy
  72. Stream size                              : 42.4 MiB (1%)
  73. Title                                    : Commentary
  74. Writing library                          : opusenc from opus-tools 0.2-3-gf5f571b
  75. Language                                 : German
  76. Default                                  : No
  77. Forced                                   : No
  78. ENCODER_OPTIONS                          : --bitrate 60
  79. Text #1
  80. ID                                       : 4
  81. ID in the original source medium         : 4610 (0x1202)
  82. Format                                   : PGS
  83. Muxing mode                              : zlib
  84. Codec ID                                 : S_HDMV/PGS
  85. Codec ID/Info                            : Picture based subtitle format used on BDs/HD-DVDs
  86. Duration                                 : 1 h 44 min
  87. Bit rate                                 : 23.9 kb/s
  88. Count of elements                        : 2314
  89. Stream size                              : 17.8 MiB (0%)
  90. Title                                    : CHS
  91. Language                                 : Chinese
  92. Default                                  : Yes
  93. Forced                                   : No
  94. Original source medium                   : Blu-ray
  95. Text #2
  96. ID                                       : 5
  97. ID in the original source medium         : 4611 (0x1203)
  98. Format                                   : PGS
  99. Muxing mode                              : zlib
  100. Codec ID                                 : S_HDMV/PGS
  101. Codec ID/Info                            : Picture based subtitle format used on BDs/HD-DVDs
  102. Duration                                 : 1 h 44 min
  103. Bit rate                                 : 28.0 kb/s
  104. Count of elements                        : 2314
  105. Stream size                              : 20.9 MiB (0%)
  106. Title                                    : CHT
  107. Language                                 : Chinese
  108. Default                                  : No
  109. Forced                                   : No
  110. Original source medium                   : Blu-ray
  111. Text #3
  112. ID                                       : 6
  113. ID in the original source medium         : 4608 (0x1200)
  114. Format                                   : PGS
  115. Muxing mode                              : zlib
  116. Codec ID                                 : S_HDMV/PGS
  117. Codec ID/Info                            : Picture based subtitle format used on BDs/HD-DVDs
  118. Duration                                 : 1 h 44 min
  119. Bit rate                                 : 40.9 kb/s
  120. Count of elements                        : 2938
  121. Stream size                              : 30.7 MiB (1%)
  122. Language                                 : German
  123. Default                                  : No
  124. Forced                                   : No
  125. Original source medium                   : Blu-ray
  126. Text #4
  127. ID                                       : 7
  128. ID in the original source medium         : 4609 (0x1201)
  129. Format                                   : PGS
  130. Muxing mode                              : zlib
  131. Codec ID                                 : S_HDMV/PGS
  132. Codec ID/Info                            : Picture based subtitle format used on BDs/HD-DVDs
  133. Duration                                 : 1 h 44 min
  134. Bit rate                                 : 37.1 kb/s
  135. Count of elements                        : 2576
  136. Stream size                              : 27.8 MiB (1%)
  137. Language                                 : English
  138. Default                                  : No
  139. Forced                                   : No
  140. Original source medium                   : Blu-ray
  141. Menu
  142. 00:00:00.000                             : en:Chapter 01
  143. 00:10:09.984                             : en:Chapter 02
  144. 00:18:15.177                             : en:Chapter 03
  145. 00:28:49.185                             : en:Chapter 04
  146. 00:37:41.676                             : en:Chapter 05
  147. 00:46:10.517                             : en:Chapter 06
  148. 00:55:33.913                             : en:Chapter 07
  149. 01:03:30.598                             : en:Chapter 08
  150. 01:12:27.051                             : en:Chapter 09
  151. 01:19:02.863                             : en:Chapter 10
  152. 01:26:47.118                             : en:Chapter 11
  153. 01:36:04.091                             : en:Chapter 12
复制代码



保举请利用qBittorrent,utorrent,transmission等标准BT软件下载!以获得最快速度。奉求保种!





回复

使用道具 举报

懒得打字嘛,点击右侧快捷回复 【右侧内容,后台自定义】
您需要登录后才可以回帖 登录 | 立即加入

本版积分规则

Archiver|小黑屋| 蓝光电影网 |网站地图

Copyright © 2021 Comsenz Inc. Powered by 蓝光电影网

蓝光电影网

本站内容由用户自主分享和转载自互联网,转载目的在于传递更多信息,并不代表本网赞同其观点和对其真实性负责。

如有侵权、违反国家法律政策行为,请联系我们,我们会第一时间及时清除和处理!

举报反馈邮箱:[email protected]

快速回复 返回顶部 返回列表