找回密码

蓝光电影网

查看: 144|回复: 0

[剧情] 春江水暖[简繁字幕].Dwelling.in.the.Fuchun.Mountains.2019.Bluray.1080p.x265.10bit-MiniHD 5.66GB

[复制链接]
蓝光币
8
发表于 2022-7-29 01:57:37 | 显示全部楼层 |阅读模式


◎标  题 春江水暖
◎译  名 Dwelling in the Fuchun Mountains
◎年  代 2019
◎产  地 中国大陆
◎类  别 剧情 / 家庭
◎语  言 汉语普通话 / 杭州话
◎上映日期 2020-08-21(中国大陆收集) / 2019-05-22(戛纳电影节)
◎IMDb评分 7.1/10 (807人评价)
◎IMDb链接 https://www.imdb.com/title/tt10219146/
◎豆瓣评分 7.3/10 (23158人评价)
◎豆瓣链接 https://movie.douban.com/subject/30419744/
◎片  长 150分钟
◎导  演 顾晓刚 Xiaogang Gu
◎编  剧 顾晓刚 Xiaogang Gu
◎演  员 杜红军 Hongjun Du
       钱有法 Youfa Qian
       汪凤娟 Fengjuan Wang
       孙章建 Zhangjian Sun
       彭璐琦 Luqi Peng
       庄一 Yi Zhuang
       章仁良 Renliang Zhang
       孙章伟 Zhangwei Sun
       董镇洋 Zhenyang Dong
       章国英 Guoying Zhang
       孙子康 Zikang Sun
       黄旭峰 Xufeng Huang
       梁颖 Ying Liang
       宁宵宵 Xiaoxiao Ning
       李嘉 Jia Li
       陈思羽 Suey Chen
       珈菲 Megan sung
       周健森 Jiansen Zhou
       窦唯 Wei Dou
       俞宁辉 Ninghui Yu
       邓旭 Xu Deng
       付舒 Shu Fu
       梅峰 Feng Mei
       周星羽 Xingyu Zhou
       李丹枫 Danfeng Li
◎标  签 家庭 / 自力电影 / 中国大陆 / 剧情 / 顾晓刚 / 中国 / 2019 / 华语电影
◎简  介
  六百年前元代画家黄公望师长以富春江两岸风采画下《富春山居图》,为驱逐2022年亚运会,富阳正在如火如荼地停止新城扶植。在此布景下,《春江水暖》报告杭州富春江畔,四兄弟分四时轮流照顾中风后失智的母亲,四个家庭面临亲情与生活的考验,借由一年四时的冷暖变化如画卷般渐渐展开。
  1. ##### MediaInfo ######
  2. General
  3. Unique ID                                : 243897047344748313416510877434995481503 (0xB77CDCD8C927B3AE56001B9524CB1B9F)
  4. Complete name                            : Dwelling.in.the.Fuchun.Mountains.2019.Bluray.1080p.x265.10bit-MiniHD.mkv
  5. Format                                   : Matroska
  6. Format version                           : Version 4
  7. File size                                : 5.66 GiB
  8. Duration                                 : 2 h 30 min
  9. Overall bit rate                         : 5 383 kb/s
  10. Movie name                               : Dwelling in the Fuchun Mountains [2019] Bluray 1080p MNHD-FRDS
  11. Encoded date                             : UTC 2021-02-02 09:19:05
  12. Writing application                      : mkvmerge v52.0.0 ('Secret For The Mad') 64-bit
  13. Writing library                          : libebml v1.4.1 + libmatroska v1.6.2
  14. Video
  15. ID                                       : 4
  16. Format                                   : HEVC
  17. Format/Info                              : High Efficiency Video Coding
  18. Format profile                           : Main [email protected]@High
  19. Codec ID                                 : V_MPEGH/ISO/HEVC
  20. Duration                                 : 2 h 30 min
  21. Bit rate                                 : 4 717 kb/s
  22. Width                                    : 1 920 pixels
  23. Height                                   : 1 080 pixels
  24. Display aspect ratio                     : 16:9
  25. Frame rate mode                          : Constant
  26. Frame rate                               : 23.976 (24000/1001/53875) FPS
  27. Color space                              : YUV
  28. Chroma subsampling                       : 4:2:0
  29. Bit depth                                : 10 bits
  30. Bits/(Pixel*Frame)                       : 0.095
  31. Stream size                              : 4.96 GiB (88%)
  32. Writing library                          : x265 3.4+30-g6722fce1f:[Windows][GCC 10.2.0][64 bit] 10bit
  33. Encoding settings                        : cpuid=538751111039 / frame-threads=3 / numa-pools=8 / wpp / pmode / no-pme / no-psnr / no-ssim / log-level=2 / input-csp=1 / input-res=1920x1080 / interlace=0 / total-frames=216390 / level-idc=0 / high-tier=1 / uhd-bd=0 / ref=6 / no-allow-non-conformance / no-repeat-headers / annexb / no-aud / no-hrd / info / hash=0 / no-temporal-layers / no-open-gop / min-keyint=23 / keyint=250 / gop-lookahead=0 / bframes=16 / b-adapt=2 / b-pyramid / bframe-bias=0 / rc-lookahead=100 / lookahead-slices=0 / NTM4NzU=uuDQuD2mJt9fsCf / scenecut=40 / hist-scenecut=0 / radl=0 / no-splice / no-intra-refresh / ctu=32 / min-cu-size=8 / no-rect / no-amp / max-tu-size=32 / tu-inter-depth=4 / tu-intra-depth=4 / limit-tu=0 / rdoq-level=2 / dynamic-rd=0.00 / no-ssim-rd / signhide / no-tskip / nr-intra=0 / nr-inter=0 / no-constrained-intra / strong-intra-smoothing / max-merge=5 / limit-refs=0 / no-limit-modes / me=3 / subme=7 / merange=57 / temporal-mvp / no-frame-dup / no-hme / weightp / weightb / no-analyze-src-pics / deblock=-3:-3 / no-sao / no-sao-non-deblock / rd=4 / selective-sao=0 / no-early-skip / no-rskip / no-fast-intra / no-tskip-fast / no-cu-lossless / b-intra / no-splitrd-skip / rdpenalty=0 / psy-rd=1.00 / psy-rdoq=1.00 / no-rd-refine / no-lossless / cbqpoffs=0 / crqpoffs=0 / rc=crf / crf=20.5 / qcomp=0.60 / qpstep=4 / stats-write=0 / stats-read=0 / vbv-maxrate=160000 / vbv-bufsize=160000 / vbv-init=0.9 / min-vbv-fullness=50.0 / max-vbv-fullness=80.0 / crf-max=0.0 / crf-min=0.0 / ipratio=1.30 / pbratio=1.20 / aq-mode=1 / aq-strength=1.00 / no-cutree / zone-count=0 / no-strict-cbr / qg-size=32 / no-rc-grain / qpmax=69 / qpmin=0 / no-const-vbv / sar=0 / overscan=0 / videoformat=5 / range=0 / colorprim=1 / transfer=1 / colormatrix=1 / chromaloc=0 / display-window=0 / cll=0,0 / min-luma=0 / max-luma=1023 / log2-max-poc-lsb=8 / vui-timing-info / vui-hrd-info / slices=1 / no-opt-qp-pps / no-opt-ref-list-length-pps / no-multi-pass-opt-rps / scenecut-bias=0.05 / hist-threshold=0.03 / no-opt-cu-delta-qp / no-aq-motion / no-hdr10 / no-hdr10-opt / no-dhdr10-opt / no-idr-recovery-sei / analysis-reuse-level=0 / analysis-save-reuse-level=0 / analysis-load-reuse-level=0 / scale-factor=0 / refine-intra=0 / refine-inter=0 / refine-mv=1 / refine-ctu-distortion=0 / no-limit-sao / ctu-info=0 / no-lowpass-dct / refine-analysis-type=0 / copy-pic=1 / max-ausize-factor=1.0 / no-dynamic-refine / no-single-sei / no-hevc-aq / no-svt / no-field / qp-adaptation-range=1.00 / no-scenecut-aware-qpconformance-window-offsets / right=0 / bottom=0 / NTM4NzU= / decoder-max-rate=0 / no-vbv-live-multi-pass
  34. Default                                  : Yes
  35. Forced                                   : No
  36. Color range                              : Limited
  37. Color primaries                          : BT.709
  38. Transfer characteristics                 : BT.709
  39. Matrix coefficients                      : BT.709
  40. Audio
  41. ID                                       : 1
  42. Format                                   : AC-3
  43. Format/Info                              : Audio Coding 3
  44. Commercial name                          : Dolby Digital
  45. Codec ID                                 : A_AC3
  46. Duration                                 : 2 h 30 min
  47. Bit rate mode                            : Constant
  48. Bit rate                                 : 640 kb/s
  49. Channel(s)                               : 6 channels
  50. Channel layout                           : L R C LFE Ls Rs
  51. Sampling rate                            : 48.0 kHz
  52. Frame rate                               : 31.250 FPS (1536 SPF)
  53. Compression mode                         : Lossy
  54. Stream size                              : 689 MiB (12%)
  55. Service kind                             : Complete Main
  56. Default                                  : Yes
  57. Forced                                   : No
  58. Text #1
  59. ID                                       : 2
  60. ID in the original source medium         : 4609 (0x1201)
  61. Format                                   : PGS
  62. Muxing mode                              : zlib
  63. Codec ID                                 : S_HDMV/PGS
  64. Codec ID/Info                            : Picture based subtitle format used on BDs/HD-DVDs
  65. Duration                                 : 2 h 22 min
  66. Bit rate                                 : 24.4 kb/s
  67. Count of elements                        : 2335
  68. Stream size                              : 24.9 MiB (0%)
  69. Title                                    : chs
  70. Language                                 : Chinese
  71. Default                                  : Yes
  72. Forced                                   : No
  73. Original source medium                   : Blu-ray
  74. Text #2
  75. ID                                       : 3
  76. ID in the original source medium         : 4610 (0x1202)
  77. Format                                   : PGS
  78. Muxing mode                              : zlib
  79. Codec ID                                 : S_HDMV/PGS
  80. Codec ID/Info                            : Picture based subtitle format used on BDs/HD-DVDs
  81. Duration                                 : 2 h 22 min
  82. Bit rate                                 : 25.0 kb/s
  83. Count of elements                        : 2335
  84. Stream size                              : 25.5 MiB (0%)
  85. Title                                    : cht
  86. Language                                 : Chinese
  87. Default                                  : No
  88. Forced                                   : No
  89. Original source medium                   : Blu-ray
  90. Menu
  91. 00:00:00.000                             : en:第 01 章
  92. 00:09:01.624                             : en:第 02 章
  93. 00:19:37.426                             : en:第 03 章
  94. 00:30:58.231                             : en:第 04 章
  95. 00:42:56.824                             : en:第 05 章
  96. 00:52:47.372                             : en:第 06 章
  97. 01:00:24.579                             : en:第 07 章
  98. 01:11:12.142                             : en:第 08 章
  99. 01:20:38.625                             : en:第 09 章
  100. 01:32:25.206                             : en:第 10 章
  101. 01:42:08.622                             : en:第 11 章
  102. 01:51:41.528                             : en:第 12 章
  103. 01:59:34.083                             : en:第 13 章
  104. 02:08:17.690                             : en:第 14 章
  105. 02:16:22.757                             : en:第 15 章
  106. 02:24:48.388                             : en:第 16 章
复制代码

















保举请利用qBittorrent,utorrent,transmission等标准BT软件下载!以获得最快速度。奉求保种!





回复

使用道具 举报

懒得打字嘛,点击右侧快捷回复 【右侧内容,后台自定义】
您需要登录后才可以回帖 登录 | 立即加入

本版积分规则

Archiver|小黑屋| 蓝光电影网 |网站地图

Copyright © 2021 Comsenz Inc. Powered by 蓝光电影网

蓝光电影网

本站内容由用户自主分享和转载自互联网,转载目的在于传递更多信息,并不代表本网赞同其观点和对其真实性负责。

如有侵权、违反国家法律政策行为,请联系我们,我们会第一时间及时清除和处理!

举报反馈邮箱:[email protected]

快速回复 返回顶部 返回列表