找回密码

蓝光电影网

查看: 157|回复: 0

[剧情] 梦乡[简英字幕].Dreamland.2019.Bluray.1080p.x265.10bit-MiniHD 5.28GB

[复制链接]
蓝光币
8
发表于 2022-7-29 01:57:38 | 显示全部楼层 |阅读模式


◎标  题 梦乡
◎译  名 末路狂奔(台)
◎片  名 Dreamland
◎年  代 2019
◎产  地 美国
◎类  别 剧情 / 惊悚
◎语  言 英语
◎上映日期 2019-04-28(翠贝卡电影节) / 2020-11-13(美国)
◎IMDb评分 5.8/10 (5064人评价)
◎IMDb链接 https://www.imdb.com/title/tt5294522/
◎豆瓣评分 6.2/10 (824人评价)
◎豆瓣链接 https://movie.douban.com/subject/27042286/
◎片  长 98分钟
◎导  演 迈尔斯·乔里斯-皮拉菲特 Miles Joris-Peyrafitte
◎演  员 芬恩·科尔 Finn Cole
       玛格特·罗比 Margot Robbie
       崔维斯·费米尔 Travis Fimmel
       凯瑞·康顿 Kerry Condon
       达比·坎普 Darby Camp
       罗拉·科克 Lola Kirke
       格雷森·贝里 Grayson Berry
       加内特·赫德兰 Garrett Hedlund
       安迪·卡斯特利奇 Andy Kastelic
       保罗·布特 Paul Blott
       埃布·罗提么 Eb Lottimer
       雅各布·布朗 Jacob Browne
       弗兰西斯·李·麦克凯恩 Frances Lee McCain
       布鲁斯·麦金托什 Bruce McIntosh
       乔西·麦克纳马拉 Josey McNamara
◎标  签 剧情 / 美国 / 玛格特·罗比 / 美国电影 / 犯罪 / 惊悚 / 2020 / MargotRobbie
◎简  介
  这部新片名为《梦乡》(Dreamland),由曾在圣丹斯电影节摘得评审团出格奖的导演Miles Joris-Peyrafitte执导。故事布景设定在20世纪30年月的美国,经济冷落和沙尘暴肆虐着美国的普通百姓,一个15岁的男孩为了高额的赏金起头漫漫追捕路,他的方针正是玛歌特·罗比饰演的女劫匪。
  1. ##### MediaInfo ######
  2. General
  3. Unique ID                                : 203817165218254449180955298562454902438 (0x9955C21742295CA08C20B190E480D6A6)
  4. Complete name                            : Dreamland.2019.Bluray.1080p.x265.10bit-MiniHD.mkv
  5. Format                                   : Matroska
  6. Format version                           : Version 4
  7. File size                                : 5.27 GiB
  8. Duration                                 : 1 h 41 min
  9. Overall bit rate                         : 7 477 kb/s
  10. Movie name                               : Dreamland [2019] Bluray 1080p MNHD-FRDS
  11. Encoded date                             : UTC 2021-01-17 12:13:45
  12. Writing application                      : mkvmerge v52.0.0 ('Secret For The Mad') 64-bit
  13. Writing library                          : libebml v1.4.1 + libmatroska v1.6.2
  14. Video
  15. ID                                       : 6
  16. Format                                   : HEVC
  17. Format/Info                              : High Efficiency Video Coding
  18. Format profile                           : Main [email protected]@High
  19. Codec ID                                 : V_MPEGH/ISO/HEVC
  20. Duration                                 : 1 h 41 min
  21. Bit rate                                 : 6 785 kb/s
  22. Width                                    : 1 920 pixels
  23. Height                                   : 804 pixels
  24. Display aspect ratio                     : 2.40:1
  25. Frame rate mode                          : Constant
  26. Frame rate                               : 23.976 (24000/1001/53875) FPS
  27. Color space                              : YUV
  28. Chroma subsampling                       : 4:2:0
  29. Bit depth                                : 10 bits
  30. Bits/(Pixel*Frame)                       : 0.183
  31. Stream size                              : 4.79 GiB (91%)
  32. Writing library                          : x265 3.4+30-g6722fce1f:[Windows][GCC 10.2.0][64 bit] 10bit
  33. Encoding settings                        : cpuid=538751111039 / frame-threads=3 / numa-pools=8 / wpp / pmode / no-pme / no-psnr / no-ssim / log-level=2 / input-csp=1 / input-res=1920x804 / interlace=0 / total-frames=145302 / level-idc=0 / high-tier=1 / uhd-bd=0 / ref=6 / no-allow-non-conformance / no-repeat-headers / annexb / no-aud / no-hrd / info / hash=0 / no-temporal-layers / no-open-gop / min-keyint=23 / keyint=250 / gop-lookahead=0 / bframes=16 / b-adapt=2 / b-pyramid / bframe-bias=0 / rc-lookahead=100 / lookahead-slices=0 / NTM4NzU=uuDQuD2mJt9fsCf / scenecut=40 / hist-scenecut=0 / radl=0 / no-splice / no-intra-refresh / ctu=32 / min-cu-size=8 / no-rect / no-amp / max-tu-size=32 / tu-inter-depth=4 / tu-intra-depth=4 / limit-tu=0 / rdoq-level=2 / dynamic-rd=0.00 / no-ssim-rd / signhide / no-tskip / nr-intra=0 / nr-inter=0 / no-constrained-intra / strong-intra-smoothing / max-merge=5 / limit-refs=0 / no-limit-modes / me=3 / subme=7 / merange=57 / temporal-mvp / no-frame-dup / no-hme / weightp / weightb / no-analyze-src-pics / deblock=-3:-3 / no-sao / no-sao-non-deblock / rd=4 / selective-sao=0 / no-early-skip / no-rskip / no-fast-intra / no-tskip-fast / no-cu-lossless / b-intra / no-splitrd-skip / rdpenalty=0 / psy-rd=1.00 / psy-rdoq=1.00 / no-rd-refine / no-lossless / cbqpoffs=0 / crqpoffs=0 / rc=crf / crf=20.0 / qcomp=0.60 / qpstep=4 / stats-write=0 / stats-read=0 / vbv-maxrate=160000 / vbv-bufsize=160000 / vbv-init=0.9 / min-vbv-fullness=50.0 / max-vbv-fullness=80.0 / crf-max=0.0 / crf-min=0.0 / ipratio=1.30 / pbratio=1.20 / aq-mode=1 / aq-strength=1.00 / no-cutree / zone-count=0 / no-strict-cbr / qg-size=32 / no-rc-grain / qpmax=69 / qpmin=0 / no-const-vbv / sar=0 / overscan=0 / videoformat=5 / range=0 / colorprim=1 / transfer=1 / colormatrix=1 / chromaloc=0 / display-window=0 / cll=0,0 / min-luma=0 / max-luma=1023 / log2-max-poc-lsb=8 / vui-timing-info / vui-hrd-info / slices=1 / no-opt-qp-pps / no-opt-ref-list-length-pps / no-multi-pass-opt-rps / scenecut-bias=0.05 / hist-threshold=0.03 / no-opt-cu-delta-qp / no-aq-motion / no-hdr10 / no-hdr10-opt / no-dhdr10-opt / no-idr-recovery-sei / analysis-reuse-level=0 / analysis-save-reuse-level=0 / analysis-load-reuse-level=0 / scale-factor=0 / refine-intra=0 / refine-inter=0 / refine-mv=1 / refine-ctu-distortion=0 / no-limit-sao / ctu-info=0 / no-lowpass-dct / refine-analysis-type=0 / copy-pic=1 / max-ausize-factor=1.0 / no-dynamic-refine / no-single-sei / no-hevc-aq / no-svt / no-field / qp-adaptation-range=1.00 / no-scenecut-aware-qpconformance-window-offsets / right=0 / bottom=0 / NTM4NzU= / decoder-max-rate=0 / no-vbv-live-multi-pass
  34. Default                                  : Yes
  35. Forced                                   : No
  36. Color range                              : Limited
  37. Color primaries                          : BT.709
  38. Transfer characteristics                 : BT.709
  39. Matrix coefficients                      : BT.709
  40. Audio
  41. ID                                       : 5
  42. Format                                   : AC-3
  43. Format/Info                              : Audio Coding 3
  44. Commercial name                          : Dolby Digital
  45. Codec ID                                 : A_AC3
  46. Duration                                 : 1 h 41 min
  47. Bit rate mode                            : Constant
  48. Bit rate                                 : 640 kb/s
  49. Channel(s)                               : 6 channels
  50. Channel layout                           : L R C LFE Ls Rs
  51. Sampling rate                            : 48.0 kHz
  52. Frame rate                               : 31.250 FPS (1536 SPF)
  53. Compression mode                         : Lossy
  54. Stream size                              : 462 MiB (9%)
  55. Language                                 : English
  56. Service kind                             : Complete Main
  57. Default                                  : Yes
  58. Forced                                   : No
  59. Text #1
  60. ID                                       : 1
  61. ID in the original source medium         : 4608 (0x1200)
  62. Format                                   : PGS
  63. Muxing mode                              : zlib
  64. Codec ID                                 : S_HDMV/PGS
  65. Codec ID/Info                            : Picture based subtitle format used on BDs/HD-DVDs
  66. Duration                                 : 1 h 33 min
  67. Bit rate                                 : 33.0 kb/s
  68. Count of elements                        : 2086
  69. Stream size                              : 22.0 MiB (0%)
  70. Language                                 : English
  71. Default                                  : No
  72. Forced                                   : No
  73. Original source medium                   : Blu-ray
  74. Text #2
  75. ID                                       : 2
  76. ID in the original source medium         : 4609 (0x1201)
  77. Format                                   : PGS
  78. Muxing mode                              : zlib
  79. Codec ID                                 : S_HDMV/PGS
  80. Codec ID/Info                            : Picture based subtitle format used on BDs/HD-DVDs
  81. Duration                                 : 1 h 38 min
  82. Bit rate                                 : 35.7 kb/s
  83. Count of elements                        : 2412
  84. Stream size                              : 25.2 MiB (0%)
  85. Language                                 : English
  86. Default                                  : No
  87. Forced                                   : No
  88. Original source medium                   : Blu-ray
  89. Text #3
  90. ID                                       : 3
  91. ID in the original source medium         : 4610 (0x1202)
  92. Format                                   : PGS
  93. Muxing mode                              : zlib
  94. Codec ID                                 : S_HDMV/PGS
  95. Codec ID/Info                            : Picture based subtitle format used on BDs/HD-DVDs
  96. Duration                                 : 1 h 40 min
  97. Bit rate                                 : 30.9 kb/s
  98. Count of elements                        : 2100
  99. Stream size                              : 22.1 MiB (0%)
  100. Language                                 : French
  101. Default                                  : No
  102. Forced                                   : No
  103. Original source medium                   : Blu-ray
  104. Text #4
  105. ID                                       : 4
  106. Format                                   : ASS
  107. Codec ID                                 : S_TEXT/ASS
  108. Codec ID/Info                            : Advanced Sub Station Alpha
  109. Duration                                 : 1 h 33 min
  110. Bit rate                                 : 165 b/s
  111. Count of elements                        : 1152
  112. Compression mode                         : Lossless
  113. Stream size                              : 114 KiB (0%)
  114. Title                                    : chs&eng
  115. Language                                 : Chinese
  116. Default                                  : No
  117. Forced                                   : No
  118. Text #5
  119. ID                                       : 7
  120. Format                                   : ASS
  121. Codec ID                                 : S_TEXT/ASS
  122. Codec ID/Info                            : Advanced Sub Station Alpha
  123. Duration                                 : 1 h 33 min
  124. Bit rate                                 : 165 b/s
  125. Count of elements                        : 1152
  126. Compression mode                         : Lossless
  127. Stream size                              : 114 KiB (0%)
  128. Title                                    : chs&eng
  129. Language                                 : Chinese
  130. Default                                  : Yes
  131. Forced                                   : No
  132. Menu
  133. 00:00:00.000                             : en:第 01 章
  134. 00:04:55.545                             : en:第 02 章
  135. 00:12:26.579                             : en:第 03 章
  136. 00:19:46.393                             : en:第 04 章
  137. 00:25:12.719                             : en:第 05 章
  138. 00:32:38.831                             : en:第 06 章
  139. 00:39:06.761                             : en:第 07 章
  140. 00:46:05.429                             : en:第 08 章
  141. 00:52:56.131                             : en:第 09 章
  142. 00:58:57.200                             : en:第 10 章
  143. 01:03:14.707                             : en:第 11 章
  144. 01:11:29.034                             : en:第 12 章
  145. 01:20:13.642                             : en:第 13 章
  146. 01:27:44.926                             : en:第 14 章
  147. 01:34:02.219                             : en:第 15 章
复制代码

















保举请利用qBittorrent,utorrent,transmission等标准BT软件下载!以获得最快速度。奉求保种!





回复

使用道具 举报

懒得打字嘛,点击右侧快捷回复 【右侧内容,后台自定义】
您需要登录后才可以回帖 登录 | 立即加入

本版积分规则

Archiver|小黑屋| 蓝光电影网 |网站地图

Copyright © 2021 Comsenz Inc. Powered by 蓝光电影网

蓝光电影网

本站内容由用户自主分享和转载自互联网,转载目的在于传递更多信息,并不代表本网赞同其观点和对其真实性负责。

如有侵权、违反国家法律政策行为,请联系我们,我们会第一时间及时清除和处理!

举报反馈邮箱:[email protected]

快速回复 返回顶部 返回列表