找回密码

蓝光电影网

查看: 176|回复: 1

[剧情] 风流保镖 A.Lovely.Way.to.Die.1968.1080p.BluRay.x264-OLDTiME 12.52GB

[复制链接]
蓝光币
1020
发表于 2022-7-29 08:28:54 | 显示全部楼层 |阅读模式


◎标  题 风骚保镳
◎译  名 A Lovely Way to Go / Bodyguard / Jim l'irresistibile detective
◎片  名 A Lovely Way to Die
◎年  代 1968
◎产  地 美国
◎类  别 剧情 / 悬疑 / 犯罪
◎语  言 英语
◎上映日期 1968-05-06
◎IMDb评分 5.2/10 (515人评价)
◎IMDb链接 https://www.imdb.com/title/tt0063246/
◎豆瓣链接 https://movie.douban.com/subject/1301956/
◎片  长 USA: 103 分钟
◎导  演 大卫·罗维尔·里奇 David Lowell Rich
◎编  剧 A.J. Russell A.J. Russell
◎演  员 马丁·格林 Martyn Green
       林肯·基尔帕特里克 Lincoln Kilpatrick
       玛丽安·麦克安德鲁 Marianne McAndrew
       Meg Myles Meg Myles
       大卫·霍德尔斯顿 David Huddleston
       约翰·P.瑞安 John P. Ryan
       William Roerick William Roerick
       约瑟夫·V·佩里 Joseph V. Perry
       多尔夫·斯威特 Dolph Sweet
       Sydney Walker Sydney Walker
       鲁斯·怀特 Ruth White
       Richard Woods Richard Woods
       肯尼思·黑格 Kenneth Haigh
       Ron Hale Ron Hale
       拉尔夫·韦特 Ralph Waite
       西娃·科丝西娜 Sylva Koscina
       达纳·艾卡 Dana Elcar
       柯克·道格拉斯 Kirk Douglas
       埃里·瓦拉赫 Eli Wallach
       多莉丝·罗伯茨 Doris Roberts
       Gino Piserchio Gino Piserchio
       Conrad Bain Conrad Bain
       菲利普·博斯科 Philip Bosco
       Jay Barney Jay Barney
       理查德·卡斯特尔诺 Richard S. Castellano
       莱斯利·查尔森 Leslie Charleson
       莎朗·法雷尔 Sharon Farrell
       Marty Glickman Marty Glickman
       Robert Gerringer Robert Gerringer
       汉克盖瑞特 Hank Garrett
       艾丽·麦古奥 Ali MacGraw
       Richard Lewis Richard Lewis
       Kenyon Hopkins Kenyon Hopkins
       Morris Hartzband Morris Hartzband
       Sidney Katz Sidney Katz
       小约翰·麦卡西 John McCarthy Jr.
       亚历山大·高利思 Alexander Golitzen
       百德·沃斯塔梅尔 Bud Westmore
       拉里·热尔曼 Larry Germain
       Peter R. Scoppa Peter R. Scoppa
  1. Video
  2. ID                                       : 1
  3. Format                                   : AVC
  4. Format/Info                              : Advanced Video Codec
  5. Format profile                           : [email protected]
  6. Format settings                          : CABAC / 5 Ref Frames
  7. Format settings, CABAC                   : Yes
  8. Format settings, Reference frames        : 5 frames
  9. Codec ID                                 : V_MPEG4/ISO/AVC
  10. Duration                                 : 1 h 43 min
  11. Bit rate                                 : 17.0 Mb/s
  12. Width                                    : 1 920 pixels
  13. Height                                   : 816 pixels
  14. Display aspect ratio                     : 2.35:1
  15. Frame rate mode                          : Constant
  16. Frame rate                               : 23.976 (24000/1001/189150) FPS
  17. Color space                              : YUV
  18. Chroma subsampling                       : 4:2:0
  19. Bit depth                                : 8 bits
  20. Scan type                                : Progressive
  21. Bits/(Pixel*Frame)                       : 0.453
  22. Stream size                              : 12.3 GiB (98%)
  23. Writing library                          : x264 core 164 r3095 baee400
  24. Encoding settings                        : cabac=1 / ref=5 / deblock=1:-3:-3 / analyse=0x3:0x133 / me=umh / subme=9 / psy=1 / psy_rd=1.00:0.00 / mixed_ref=1 / me_range=16 / chroma_me=1 / trellis=2 / 8x8dct=1 / cqm=0 / deadzone=21,11 / fast_pskip=0 / chroma_qp_offset=-2 / threads=25 / lookahead_threads=2 / sliced_threads=0 / nr=0 / decimate=1 / interlaced=0 / bluray_compat=0 / constrained_intra=0 / bframes=3 / b_pyramid=2 / b_adapt=2 / b_bias=0 / direct=3 / weightb=1 / open_gop=0 / weightp=2 / keyint=250 / keyint_min=23 / scenecut=40 / intra_refresh=0 / rc_lookahead=60 / rc=crf / mbtree=1 / crf=17.0 / qcomp=0.60 / qpmin=0 / qpmax=69 / qpstep=4 / ip_ratio=1.40 / aq=1:1.00
  25. Language                                 : English
  26. Default                                  : Yes
  27. Forced                                   : No

  28. Audio
  29. ID                                       : 2
  30. Format                                   : FLAC
  31. Format/Info                              : Free Lossless Audio Codec
  32. Codec ID                                 : A_FLAC
  33. Duration                                 : 1 h 43 min
  34. Bit rate mode                            : Variable
  35. Bit rate                                 : 291 kb/s
  36. Channel(s)                               : 2 channels
  37. Channel layout                           : L R
  38. Sampling rate                            : 48.0 kHz
  39. Frame rate                               : 11.719 FPS (4096 SPF)
  40. Bit depth                                : 16 bits
  41. Compression mode                         : Lossless
  42. Stream size                              : 216 MiB (2%)
  43. Writing library                          : libFLAC 1.3.2 (UTC 2017-01-01)
  44. Language                                 : English
  45. Default                                  : Yes
  46. Forced                                   : No

  47. Text #1
  48. ID                                       : 3
  49. Format                                   : PGS
  50. Muxing mode                              : zlib
  51. Codec ID                                 : S_HDMV/PGS
  52. Codec ID/Info                            : Picture based subtitle format used on BDs/HD-DVDs
  53. Duration                                 : 1 h 42 min
  54. Bit rate                                 : 20.0 kb/s
  55. Count of elements                        : 2661
  56. Stream size                              : 14.6 MiB (0%)
  57. Language                                 : English
  58. Default                                  : No
  59. Forced                                   : No

  60. Text #2
  61. ID                                       : 4
  62. Format                                   : PGS
  63. Muxing mode                              : zlib
  64. Codec ID                                 : S_HDMV/PGS
  65. Codec ID/Info                            : Picture based subtitle format used on BDs/HD-DVDs
  66. Duration                                 : 1 h 42 min
  67. Bit rate                                 : 24.3 kb/s
  68. Count of elements                        : 2661
  69. Stream size                              : 17.7 MiB (0%)
  70. Language                                 : German
  71. Default                                  : No
  72. Forced                                   : No

  73. Menu
  74. 00:00:00.000                             : en:Chapter 01
  75. 00:01:57.159                             : en:Chapter 02
  76. 00:14:54.435                             : en:Chapter 03
  77. 00:28:11.440                             : en:Chapter 04
  78. 00:36:46.704                             : en:Chapter 05
  79. 00:44:24.704                             : en:Chapter 06
  80. 00:52:55.839                             : en:Chapter 07
  81. 01:02:30.956                             : en:Chapter 08
  82. 01:11:19.942                             : en:Chapter 09
  83. 01:22:08.674                             : en:Chapter 10
  84. 01:33:04.954                             : en:Chapter 11
复制代码






                                       
                                       

                                       
                                       
                                       




回复

使用道具 举报

蓝光币
70
发表于 2022-7-29 21:46:18 | 显示全部楼层

楼主太厉害了!楼主,电影应该很好看我觉得蓝光电影网真是个好地方!
回复 支持 反对

使用道具 举报

懒得打字嘛,点击右侧快捷回复 【右侧内容,后台自定义】
您需要登录后才可以回帖 登录 | 立即加入

本版积分规则

Archiver|小黑屋| 蓝光电影网 |网站地图

Copyright © 2021 Comsenz Inc. Powered by 蓝光电影网

蓝光电影网

本站内容由用户自主分享和转载自互联网,转载目的在于传递更多信息,并不代表本网赞同其观点和对其真实性负责。

如有侵权、违反国家法律政策行为,请联系我们,我们会第一时间及时清除和处理!

举报反馈邮箱:[email protected]

快速回复 返回顶部 返回列表