找回密码

蓝光电影网

查看: 30|回复: 3

[其他] 白狮奇缘 Mia.and.the.White.Lion.2018.PROPER.720p.BluRay.x264-YAMG 3.28GB

[复制链接]
蓝光币
886
发表于 2022-7-29 08:37:55 | 显示全部楼层 |阅读模式


◎标  题 白狮奇缘
◎译  名 米娅和白狮 / 我和我的小白狮王(台) / Mia and the White Lion
◎片  名 Mia et le Lion Blanc
◎年  代 2018
◎产  地 法国 / 德国 / 南非
◎类  别 家庭 / 冒险
◎语  言 法语 / 英语
◎上映日期 2020-07-31(中国大陆) / 2018-12-26(法国)
◎IMDb评分 6.5/10 (4986人评价)
◎IMDb链接 https://www.imdb.com/title/tt4844148/
◎豆瓣评分 6.6/10 (3999人评价)
◎豆瓣链接 https://movie.douban.com/subject/30153314/
◎片  长 98分钟
◎导  演 吉勒斯·戴·迈斯特 Gilles de Maistre
◎编  剧 普兰·德梅斯特 Prune de Maistre
       威廉姆·戴维斯 William Davies
       吉勒斯·戴·迈斯特 Gilles de Maistre
       让-保罗·胡森 Jean-Paul Husson
◎演  员 丹尼·戴·维利尔斯 Daniah De Villiers
       梅拉尼·罗兰 Mélanie Laurent
       兰利·柯克伍德 Langley Kirkwood
       赖恩·麦克·伦南 Ryan Mac Lennan
       布兰登·奥雷 Brandon Auret
       Tessa Jubber Tessa Jubber
◎标  签 动物 / 温情 / 狮子 / 人性 / 长大 / 非洲 / 法国 / 剧情
◎简  介

    11岁的女孩米娅和家人在非洲农场生活,但从伦敦过来的她,一向没法融入南非当地生活。直到农场诞生了一只珍稀的小白狮查理,小白狮陪伴孤僻的米娅走出阴霾,为她带来了很多欢乐。随着米娅与白狮一天天长大,成年白狮逐步变得不成控,家人不能不把它隔分开来。但渐渐地,米娅发现,这背后隐藏着一桩不成告人的诡计。为了让白狮自在生活,米娅决议带白狮踏上回家路,展开了一段奇妙冒险旅程……
  1. Video
  2. ID                                       : 1
  3. Format                                   : AVC
  4. Format/Info                              : Advanced Video Codec
  5. Format profile                           : [email protected]
  6. Format settings                          : CABAC / 12 Ref Frames
  7. Format settings, CABAC                   : Yes
  8. Format settings, Reference frames        : 12 frames
  9. Codec ID                                 : V_MPEG4/ISO/AVC
  10. Duration                                 : 1 h 38 min
  11. Bit rate                                 : 4 117 kb/s
  12. Width                                    : 1 280 pixels
  13. Height                                   : 536 pixels
  14. Display aspect ratio                     : 2.40:1
  15. Frame rate mode                          : Constant
  16. Frame rate                               : 23.976 (24000/1001/189150) FPS
  17. Color space                              : YUV
  18. Chroma subsampling                       : 4:2:0
  19. Bit depth                                : 8 bits
  20. Scan type                                : Progressive
  21. Bits/(Pixel*Frame)                       : 0.250
  22. Stream size                              : 2.83 GiB (86%)
  23. Writing library                          : x264 core 164 r3094 bfc87b7
  24. Encoding settings                        : cabac=1 / ref=12 / deblock=1:-3:-3 / analyse=0x3:0x133 / me=umh / subme=10 / psy=1 / psy_rd=1.00:0.00 / mixed_ref=1 / me_range=32 / chroma_me=1 / trellis=2 / 8x8dct=1 / cqm=0 / deadzone=21,11 / fast_pskip=0 / chroma_qp_offset=-2 / threads=17 / lookahead_threads=2 / sliced_threads=0 / nr=0 / decimate=0 / interlaced=0 / bluray_compat=0 / constrained_intra=0 / bframes=8 / b_pyramid=2 / b_adapt=2 / b_bias=0 / direct=3 / weightb=1 / open_gop=0 / weightp=2 / keyint=250 / keyint_min=23 / scenecut=40 / intra_refresh=0 / rc=crf / mbtree=0 / crf=17.0 / qcomp=0.60 / qpmin=0 / qpmax=69 / qpstep=4 / ip_ratio=1.40 / pb_ratio=1.30 / aq=3:0.60
  25. Language                                 : English
  26. Default                                  : Yes
  27. Forced                                   : No
  28. Color range                              : Limited
  29. Matrix coefficients                      : BT.709

  30. Audio
  31. ID                                       : 2
  32. Format                                   : AC-3
  33. Format/Info                              : Audio Coding 3
  34. Commercial name                          : Dolby Digital
  35. Codec ID                                 : A_AC3
  36. Duration                                 : 1 h 38 min
  37. Bit rate mode                            : Constant
  38. Bit rate                                 : 640 kb/s
  39. Channel(s)                               : 6 channels
  40. Channel layout                           : L R C LFE Ls Rs
  41. Sampling rate                            : 48.0 kHz
  42. Frame rate                               : 31.250 FPS (1536 SPF)
  43. Compression mode                         : Lossy
  44. Stream size                              : 450 MiB (13%)
  45. Title                                    : French
  46. Language                                 : French
  47. Service kind                             : Complete Main
  48. Default                                  : Yes
  49. Forced                                   : No

  50. Text #1
  51. ID                                       : 3
  52. Format                                   : UTF-8
  53. Codec ID                                 : S_TEXT/UTF8
  54. Codec ID/Info                            : UTF-8 Plain Text
  55. Duration                                 : 1 h 37 min
  56. Bit rate                                 : 51 b/s
  57. Count of elements                        : 1359
  58. Stream size                              : 36.9 KiB (0%)
  59. Title                                    : English
  60. Language                                 : English
  61. Default                                  : No
  62. Forced                                   : No

  63. Text #2
  64. ID                                       : 4
  65. Format                                   : UTF-8
  66. Codec ID                                 : S_TEXT/UTF8
  67. Codec ID/Info                            : UTF-8 Plain Text
  68. Duration                                 : 1 h 37 min
  69. Bit rate                                 : 56 b/s
  70. Count of elements                        : 1477
  71. Stream size                              : 40.2 KiB (0%)
  72. Title                                    : English SDH
  73. Language                                 : English
  74. Default                                  : No
  75. Forced                                   : No

  76. Text #3
  77. ID                                       : 5
  78. Format                                   : PGS
  79. Muxing mode                              : zlib
  80. Codec ID                                 : S_HDMV/PGS
  81. Codec ID/Info                            : Picture based subtitle format used on BDs/HD-DVDs
  82. Duration                                 : 1 h 37 min
  83. Bit rate                                 : 32.7 kb/s
  84. Count of elements                        : 2693
  85. Stream size                              : 22.9 MiB (1%)
  86. Title                                    : English SDH PGS
  87. Language                                 : English
  88. Default                                  : No
  89. Forced                                   : No

  90. Menu
  91. 00:00:00.000                             : :Chapter 01
  92. 00:08:24.879                             : :Chapter 02
  93. 00:16:39.624                             : :Chapter 03
  94. 00:23:24.570                             : :Chapter 04
  95. 00:31:59.751                             : :Chapter 05
  96. 00:40:36.059                             : :Chapter 06
  97. 00:50:02.541                             : :Chapter 07
  98. 00:58:57.200                             : :Chapter 08
  99. 01:07:23.957                             : :Chapter 09
  100. 01:15:54.884                             : :Chapter 10
  101. 01:25:02.472                             : :Chapter 11
  102. 01:35:44.697                             : :Chapter 12
复制代码





                                       
                                       

                                       
                                       
                                       




回复

使用道具 举报

蓝光币
151
发表于 2022-7-29 11:30:10 | 显示全部楼层

其实我一直觉得楼主的品味不错!呵呵!蓝光电影网太棒了!
回复 支持 反对

使用道具 举报

蓝光币
110
发表于 2022-7-30 00:51:05 | 显示全部楼层
多谢楼主的分享啦
回复 支持 反对

使用道具 举报

蓝光币
79
发表于 2022-7-30 09:55:45 | 显示全部楼层

这东西我收了!谢谢楼主!蓝光电影网真好!
回复 支持 反对

使用道具 举报

懒得打字嘛,点击右侧快捷回复 【右侧内容,后台自定义】
您需要登录后才可以回帖 登录 | 立即加入

本版积分规则

Archiver|小黑屋| 蓝光电影网 |网站地图

Copyright © 2021 Comsenz Inc. Powered by 蓝光电影网

蓝光电影网

本站内容由用户自主分享和转载自互联网,转载目的在于传递更多信息,并不代表本网赞同其观点和对其真实性负责。

如有侵权、违反国家法律政策行为,请联系我们,我们会第一时间及时清除和处理!

举报反馈邮箱:[email protected]

快速回复 返回顶部 返回列表