找回密码

蓝光电影网

查看: 15|回复: 0

[奇幻] 后启示录 Apocalypse.After.2018.FRENCH.1080p.AMZN.WEBRip.DDP2.0.x264-SbR 3.24GB

[复制链接]
蓝光币
886
发表于 2022-7-29 13:56:14 | 显示全部楼层 |阅读模式


◎标  题 后启迪录
◎译  名 Apocalypse After
◎片  名 Ultra Pulpe
◎年  代 2018
◎产  地 法国
◎类  别 奇异
◎语  言 法语
◎上映日期 2018-08-15(法国)
◎IMDb评分 6.3/10 (512人评价)
◎IMDb链接 https://www.imdb.com/title/tt8306938/
◎豆瓣评分 6.9/10 (712人评价)
◎豆瓣链接 https://movie.douban.com/subject/30222499/
◎片  长 37分钟
◎导  演 贝特朗·芒蒂格 Bertrand Mandico
◎编  剧 贝特朗·芒蒂格 Bertrand Mandico
◎演  员 Pauline Jacquard          Pauline Jacquard
       埃琳娜·勒文松 Elina Löwensohn
       萝拉·克雷顿 Lola Créton
       维玛拉·庞斯 Vimala Pons
       保利娜·洛里拉德 Pauline Lorillard
       娜塔莉·理查德 Nathalie Richard
◎简  介

  由三部短片组成。                                       
                                    Programme de 3 courts métrages de Caroline Poggi et Jonathan Vinel - Yann Gonzalez - Bertrand Mandico.                                       
                                    1- AFTER SCHOOL KNIFE FIGHT de Caroline Poggi et Jonathan Vinel                                       
                                    Laëtitia, Roca, Nico et Naël se retrouvent au terrain vague pour leur ultime répétition. Leur groupe n’existera bientôt plus car Laëtitia va partir loin pour ses études. C’est l’histoire de ces jeunes adu...
  1. Video
  2. ID                                       : 1
  3. Format                                   : AVC
  4. Format/Info                              : Advanced Video Codec
  5. Format profile                           : [email protected]
  6. Format settings                          : CABAC / 4 Ref Frames
  7. Format settings, CABAC                   : Yes
  8. Format settings, Reference frames        : 4 frames
  9. Codec ID                                 : V_MPEG4/ISO/AVC
  10. Duration                                 : 36 min 24 s
  11. Bit rate                                 : 12.5 Mb/s
  12. Width                                    : 1 920 pixels
  13. Height                                   : 800 pixels
  14. Display aspect ratio                     : 2.40:1
  15. Frame rate mode                          : Constant
  16. Frame rate                               : 25.000 FPS
  17. Color space                              : YUV
  18. Chroma subsampling                       : 4:2:0
  19. Bit depth                                : 8 bits
  20. Scan type                                : Progressive
  21. Bits/(Pixel*Frame)                       : 0.326
  22. Stream size                              : 3.19 GiB (98%)
  23. Language                                 : French
  24. Default                                  : Yes
  25. Forced                                   : No
  26. Color range                              : Limited
  27. Color primaries                          : BT.709
  28. Transfer characteristics                 : BT.709
  29. Matrix coefficients                      : BT.709
  30. Audio
  31. ID                                       : 2
  32. Format                                   : E-AC-3
  33. Format/Info                              : Enhanced AC-3
  34. Commercial name                          : Dolby Digital Plus
  35. Codec ID                                 : A_EAC3
  36. Duration                                 : 36 min 24 s
  37. Bit rate mode                            : Constant
  38. Bit rate                                 : 224 kb/s
  39. Channel(s)                               : 2 channels
  40. Channel layout                           : L R
  41. Sampling rate                            : 48.0 kHz
  42. Frame rate                               : 31.250 FPS (1536 SPF)
  43. Compression mode                         : Lossy
  44. Stream size                              : 58.3 MiB (2%)
  45. Title                                    : French
  46. Language                                 : French
  47. Service kind                             : Complete Main
  48. Default                                  : Yes
  49. Forced                                   : No
  50. Text #1
  51. ID                                       : 3
  52. Format                                   : UTF-8
  53. Codec ID                                 : S_TEXT/UTF8
  54. Codec ID/Info                            : UTF-8 Plain Text
  55. Duration                                 : 34 min 21 s
  56. Bit rate                                 : 49 b/s
  57. Frame rate                               : 0.219 FPS
  58. Count of elements                        : 452
  59. Stream size                              : 12.5 KiB (0%)
  60. Title                                    : English
  61. Language                                 : English
  62. Default                                  : Yes
  63. Forced                                   : No
  64. Text #2
  65. ID                                       : 4
  66. Format                                   : UTF-8
  67. Codec ID                                 : S_TEXT/UTF8
  68. Codec ID/Info                            : UTF-8 Plain Text
  69. Duration                                 : 36 min 13 s
  70. Bit rate                                 : 63 b/s
  71. Frame rate                               : 0.218 FPS
  72. Count of elements                        : 473
  73. Stream size                              : 16.9 KiB (0%)
  74. Title                                    : Japanese
  75. Language                                 : Japanese
  76. Default                                  : No
  77. Forced                                   : No
复制代码






                                       
                                       

                                       
                                       
                                       




回复

使用道具 举报

懒得打字嘛,点击右侧快捷回复 【右侧内容,后台自定义】
您需要登录后才可以回帖 登录 | 立即加入

本版积分规则

Archiver|小黑屋| 蓝光电影网 |网站地图

Copyright © 2021 Comsenz Inc. Powered by 蓝光电影网

蓝光电影网

本站内容由用户自主分享和转载自互联网,转载目的在于传递更多信息,并不代表本网赞同其观点和对其真实性负责。

如有侵权、违反国家法律政策行为,请联系我们,我们会第一时间及时清除和处理!

举报反馈邮箱:[email protected]

快速回复 返回顶部 返回列表