找回密码

蓝光电影网

查看: 35|回复: 1

[2160p] 野战排 Platoon.1986.2160p.WEB-DL.x265.10bit.HDR.DTS-HD.MA.5.1-NOGRP 23.41GB

[复制链接]
蓝光币
886
发表于 2022-7-29 17:18:05 | 显示全部楼层 |阅读模式


◎标  题 野战排
◎译  名 杀戮疆场(港) / 进步高棉(台)
◎片  名 Platoon
◎年  代 1986
◎产  地 美国 / 英国
◎类  别 剧情 / 行动 / 战争
◎语  言 英语 / 越南语
◎上映日期 1986-12-19
◎IMDb评分 8.1/10 (397778人评价)
◎IMDb链接 https://www.imdb.com/title/tt0091763/
◎豆瓣评分 8.2/10 (39120人评价)
◎豆瓣链接 https://movie.douban.com/subject/1293396/
◎片  长 120分钟
◎导  演 奥利佛·斯通 Oliver Stone
◎编  剧 奥利佛·斯通 Oliver Stone
◎演  员 威廉·达福 Willem Dafoe
       查理·辛 Charlie Sheen
       汤姆·贝伦杰 Tom Berenger
       凯斯·大卫 Keith David
       凯文·狄龙 Kevin Dillon
       马克·摩斯 Mark Moses
       约翰尼·德普 Johnny Depp
       福里斯特·惠特克 Forest Whitaker
       理查德·埃德森 Richard Edson
       奥利佛·斯通 Oliver Stone
       托尼·托德 Tony Todd
◎标  签 战争 / 越战 / 美国 / 奥利弗·斯通 / 美国电影 / 典范 / 1986 / OliverStone
◎简  介

    泰勒(查理•辛 Charlie Sheen 饰)是越战时代的一位美国大门生,他前往越南火线去服兵役,被分到了一个步卒军队。军队里有两小我一向对他影响颇大——伊莱亚斯(威廉•达福 Willem Dafoe 饰)和巴恩斯(汤姆•贝伦杰 Tom Berenger 饰)。他们两人对战争的看法截然分歧,前者不忍残杀无辜,尔后者却救死扶伤,泰勒心里很是迷惑,到底谁对战争的看法才是正确。                                                                      巴恩斯展开了一场残暴的屠杀,越南整条村子都流血成河。伊莱亚斯力劝好友不要如此残暴,却遭致二人关系的裂缝。巴恩斯更思疑伊莱亚斯向下属打小报告,友谊变成妒恨。因而,在一次森林战争中,他背着一切人,向伊莱亚斯扣下了扳机。                                                                      泰勒却洞察了这一切,他心里终究有了答案。
  1. Video
  2. ID                                       : 1
  3. Format                                   : HEVC
  4. Format/Info                              : High Efficiency Video Coding
  5. Format profile                           : Main [email protected]@High
  6. HDR format                               : SMPTE ST 2086, HDR10 compatible
  7. Codec ID                                 : V_MPEGH/ISO/HEVC
  8. Duration                                 : 1 h 59 min
  9. Bit rate                                 : 24.4 Mb/s
  10. Width                                    : 3 832 pixels
  11. Height                                   : 2 068 pixels
  12. Display aspect ratio                     : 1.85:1
  13. Frame rate mode                          : Constant
  14. Frame rate                               : 23.976 FPS
  15. Color space                              : YUV
  16. Chroma subsampling                       : 4:2:0 (Type 2)
  17. Bit depth                                : 10 bits
  18. Bits/(Pixel*Frame)                       : 0.128
  19. Stream size                              : 20.4 GiB (87%)
  20. Default                                  : Yes
  21. Forced                                   : No
  22. Color range                              : Limited
  23. Color primaries                          : BT.2020
  24. Transfer characteristics                 : PQ
  25. Matrix coefficients                      : BT.2020 non-constant
  26. Mastering display color primaries        : BT.2020
  27. Mastering display luminance              : min: 0.0050 cd/m2, max: 1000 cd/m2
  28. Maximum Content Light Level              : 10000 cd/m2
  29. Maximum Frame-Average Light Level        : 5337 cd/m2
  30. Audio #1
  31. ID                                       : 2
  32. Format                                   : DTS XLL
  33. Format/Info                              : Digital Theater Systems
  34. Commercial name                          : DTS-HD Master Audio
  35. Codec ID                                 : A_DTS
  36. Duration                                 : 1 h 59 min
  37. Bit rate mode                            : Variable
  38. Bit rate                                 : 2 571 kb/s
  39. Channel(s)                               : 6 channels
  40. Channel layout                           : C L R Ls Rs LFE
  41. Sampling rate                            : 48.0 kHz
  42. Frame rate                               : 93.750 FPS (512 SPF)
  43. Bit depth                                : 24 bits
  44. Compression mode                         : Lossless
  45. Stream size                              : 2.15 GiB (9%)
  46. Title                                    : DTS-HD MA 5.1
  47. Language                                 : English
  48. Default                                  : Yes
  49. Forced                                   : No
  50. Audio #2
  51. ID                                       : 3
  52. Format                                   : AC-3
  53. Format/Info                              : Audio Coding 3
  54. Commercial name                          : Dolby Digital
  55. Codec ID                                 : A_AC3
  56. Duration                                 : 1 h 59 min
  57. Bit rate mode                            : Constant
  58. Bit rate                                 : 384 kb/s
  59. Channel(s)                               : 6 channels
  60. Channel layout                           : L R C LFE Ls Rs
  61. Sampling rate                            : 48.0 kHz
  62. Frame rate                               : 31.250 FPS (1536 SPF)
  63. Compression mode                         : Lossy
  64. Stream size                              : 329 MiB (1%)
  65. Language                                 : English
  66. Service kind                             : Complete Main
  67. Default                                  : No
  68. Forced                                   : No
  69. Audio #3
  70. ID                                       : 4
  71. Format                                   : E-AC-3
  72. Format/Info                              : Enhanced AC-3
  73. Commercial name                          : Dolby Digital Plus
  74. Codec ID                                 : A_EAC3
  75. Duration                                 : 1 h 59 min
  76. Bit rate mode                            : Constant
  77. Bit rate                                 : 640 kb/s
  78. Channel(s)                               : 6 channels
  79. Channel layout                           : L R C LFE Ls Rs
  80. Sampling rate                            : 48.0 kHz
  81. Frame rate                               : 31.250 FPS (1536 SPF)
  82. Compression mode                         : Lossy
  83. Stream size                              : 549 MiB (2%)
  84. Title                                    : DDP 5.1
  85. Language                                 : English
  86. Service kind                             : Complete Main
  87. Default                                  : No
  88. Forced                                   : No
  89. Text #1
  90. ID                                       : 5
  91. Format                                   : UTF-8
  92. Codec ID                                 : S_TEXT/UTF8
  93. Codec ID/Info                            : UTF-8 Plain Text
  94. Duration                                 : 1 h 55 min
  95. Bit rate                                 : 54 b/s
  96. Frame rate                               : 0.182 FPS
  97. Count of elements                        : 1259
  98. Stream size                              : 45.7 KiB (0%)
  99. Title                                    : English
  100. Language                                 : English
  101. Default                                  : No
  102. Forced                                   : No
  103. Text #2
  104. ID                                       : 6
  105. Format                                   : UTF-8
  106. Codec ID                                 : S_TEXT/UTF8
  107. Codec ID/Info                            : UTF-8 Plain Text
  108. Duration                                 : 1 h 54 min
  109. Bit rate                                 : 62 b/s
  110. Frame rate                               : 0.237 FPS
  111. Count of elements                        : 1620
  112. Stream size                              : 52.0 KiB (0%)
  113. Title                                    : English CC
  114. Language                                 : English
  115. Default                                  : No
  116. Forced                                   : No
  117. Text #3
  118. ID                                       : 7
  119. Format                                   : UTF-8
  120. Codec ID                                 : S_TEXT/UTF8
  121. Codec ID/Info                            : UTF-8 Plain Text
  122. Duration                                 : 1 h 55 min
  123. Bit rate                                 : 33 b/s
  124. Frame rate                               : 0.157 FPS
  125. Count of elements                        : 1080
  126. Stream size                              : 28.2 KiB (0%)
  127. Title                                    : Chinese Mandarin Traditional
  128. Language                                 : Chinese
  129. Default                                  : No
  130. Forced                                   : No
  131. Text #4
  132. ID                                       : 8
  133. Format                                   : UTF-8
  134. Codec ID                                 : S_TEXT/UTF8
  135. Codec ID/Info                            : UTF-8 Plain Text
  136. Duration                                 : 1 h 55 min
  137. Bit rate                                 : 47 b/s
  138. Frame rate                               : 0.139 FPS
  139. Count of elements                        : 959
  140. Stream size                              : 39.7 KiB (0%)
  141. Title                                    : Czech
  142. Language                                 : Czech
  143. Default                                  : No
  144. Forced                                   : No
  145. Text #5
  146. ID                                       : 9
  147. Format                                   : UTF-8
  148. Codec ID                                 : S_TEXT/UTF8
  149. Codec ID/Info                            : UTF-8 Plain Text
  150. Duration                                 : 1 h 55 min
  151. Bit rate                                 : 51 b/s
  152. Frame rate                               : 0.182 FPS
  153. Count of elements                        : 1256
  154. Stream size                              : 43.4 KiB (0%)
  155. Title                                    : Danish
  156. Language                                 : Danish
  157. Default                                  : No
  158. Forced                                   : No
  159. Text #6
  160. ID                                       : 10
  161. Format                                   : UTF-8
  162. Codec ID                                 : S_TEXT/UTF8
  163. Codec ID/Info                            : UTF-8 Plain Text
  164. Duration                                 : 1 h 55 min
  165. Bit rate                                 : 55 b/s
  166. Frame rate                               : 0.182 FPS
  167. Count of elements                        : 1256
  168. Stream size                              : 47.0 KiB (0%)
  169. Title                                    : German
  170. Language                                 : German
  171. Default                                  : No
  172. Forced                                   : No
  173. Text #7
  174. ID                                       : 11
  175. Format                                   : UTF-8
  176. Codec ID                                 : S_TEXT/UTF8
  177. Codec ID/Info                            : UTF-8 Plain Text
  178. Duration                                 : 1 h 55 min
  179. Bit rate                                 : 52 b/s
  180. Frame rate                               : 0.182 FPS
  181. Count of elements                        : 1256
  182. Stream size                              : 44.2 KiB (0%)
  183. Title                                    : Spanish Latin American
  184. Language                                 : Spanish
  185. Default                                  : No
  186. Forced                                   : No
  187. Text #8
  188. ID                                       : 12
  189. Format                                   : UTF-8
  190. Codec ID                                 : S_TEXT/UTF8
  191. Codec ID/Info                            : UTF-8 Plain Text
  192. Duration                                 : 1 h 55 min
  193. Bit rate                                 : 51 b/s
  194. Frame rate                               : 0.182 FPS
  195. Count of elements                        : 1256
  196. Stream size                              : 43.7 KiB (0%)
  197. Title                                    : Spanish European
  198. Language                                 : Spanish
  199. Default                                  : No
  200. Forced                                   : No
  201. Text #9
  202. ID                                       : 13
  203. Format                                   : UTF-8
  204. Codec ID                                 : S_TEXT/UTF8
  205. Codec ID/Info                            : UTF-8 Plain Text
  206. Duration                                 : 1 h 55 min
  207. Bit rate                                 : 47 b/s
  208. Frame rate                               : 0.182 FPS
  209. Count of elements                        : 1257
  210. Stream size                              : 39.7 KiB (0%)
  211. Title                                    : Finnish
  212. Language                                 : Finnish
  213. Default                                  : No
  214. Forced                                   : No
  215. Text #10
  216. ID                                       : 14
  217. Format                                   : UTF-8
  218. Codec ID                                 : S_TEXT/UTF8
  219. Codec ID/Info                            : UTF-8 Plain Text
  220. Duration                                 : 1 h 58 min
  221. Bit rate                                 : 51 b/s
  222. Frame rate                               : 0.176 FPS
  223. Count of elements                        : 1257
  224. Stream size                              : 44.9 KiB (0%)
  225. Title                                    : French European
  226. Language                                 : French
  227. Default                                  : No
  228. Forced                                   : No
  229. Text #11
  230. ID                                       : 15
  231. Format                                   : UTF-8
  232. Codec ID                                 : S_TEXT/UTF8
  233. Codec ID/Info                            : UTF-8 Plain Text
  234. Duration                                 : 1 h 55 min
  235. Bit rate                                 : 46 b/s
  236. Frame rate                               : 0.139 FPS
  237. Count of elements                        : 960
  238. Stream size                              : 39.1 KiB (0%)
  239. Title                                    : Hungarian
  240. Language                                 : Hungarian
  241. Default                                  : No
  242. Forced                                   : No
  243. Text #12
  244. ID                                       : 16
  245. Format                                   : UTF-8
  246. Codec ID                                 : S_TEXT/UTF8
  247. Codec ID/Info                            : UTF-8 Plain Text
  248. Duration                                 : 1 h 55 min
  249. Bit rate                                 : 50 b/s
  250. Frame rate                               : 0.182 FPS
  251. Count of elements                        : 1256
  252. Stream size                              : 42.9 KiB (0%)
  253. Title                                    : Italian
  254. Language                                 : Italian
  255. Default                                  : No
  256. Forced                                   : No
  257. Text #13
  258. ID                                       : 17
  259. Format                                   : UTF-8
  260. Codec ID                                 : S_TEXT/UTF8
  261. Codec ID/Info                            : UTF-8 Plain Text
  262. Duration                                 : 1 h 55 min
  263. Bit rate                                 : 32 b/s
  264. Frame rate                               : 0.131 FPS
  265. Count of elements                        : 906
  266. Stream size                              : 27.3 KiB (0%)
  267. Title                                    : Japanese
  268. Language                                 : Japanese
  269. Default                                  : No
  270. Forced                                   : No
  271. Text #14
  272. ID                                       : 18
  273. Format                                   : UTF-8
  274. Codec ID                                 : S_TEXT/UTF8
  275. Codec ID/Info                            : UTF-8 Plain Text
  276. Duration                                 : 1 h 55 min
  277. Bit rate                                 : 46 b/s
  278. Frame rate                               : 0.182 FPS
  279. Count of elements                        : 1257
  280. Stream size                              : 39.3 KiB (0%)
  281. Title                                    : Dutch
  282. Language                                 : Dutch
  283. Default                                  : No
  284. Forced                                   : No
  285. Text #15
  286. ID                                       : 19
  287. Format                                   : UTF-8
  288. Codec ID                                 : S_TEXT/UTF8
  289. Codec ID/Info                            : UTF-8 Plain Text
  290. Duration                                 : 1 h 55 min
  291. Bit rate                                 : 50 b/s
  292. Frame rate                               : 0.182 FPS
  293. Count of elements                        : 1257
  294. Stream size                              : 42.4 KiB (0%)
  295. Title                                    : Norwegian
  296. Language                                 : Norwegian
  297. Default                                  : No
  298. Forced                                   : No
  299. Text #16
  300. ID                                       : 20
  301. Format                                   : UTF-8
  302. Codec ID                                 : S_TEXT/UTF8
  303. Codec ID/Info                            : UTF-8 Plain Text
  304. Duration                                 : 1 h 55 min
  305. Bit rate                                 : 47 b/s
  306. Frame rate                               : 0.139 FPS
  307. Count of elements                        : 960
  308. Stream size                              : 39.8 KiB (0%)
  309. Title                                    : Polish
  310. Language                                 : Polish
  311. Default                                  : No
  312. Forced                                   : No
  313. Text #17
  314. ID                                       : 21
  315. Format                                   : UTF-8
  316. Codec ID                                 : S_TEXT/UTF8
  317. Codec ID/Info                            : UTF-8 Plain Text
  318. Duration                                 : 1 h 55 min
  319. Bit rate                                 : 47 b/s
  320. Frame rate                               : 0.158 FPS
  321. Count of elements                        : 1088
  322. Stream size                              : 40.0 KiB (0%)
  323. Title                                    : Portuguese Brazilian
  324. Language                                 : Portuguese
  325. Default                                  : No
  326. Forced                                   : No
  327. Text #18
  328. ID                                       : 22
  329. Format                                   : UTF-8
  330. Codec ID                                 : S_TEXT/UTF8
  331. Codec ID/Info                            : UTF-8 Plain Text
  332. Duration                                 : 1 h 55 min
  333. Bit rate                                 : 48 b/s
  334. Frame rate                               : 0.139 FPS
  335. Count of elements                        : 959
  336. Stream size                              : 41.2 KiB (0%)
  337. Title                                    : Portuguese European
  338. Language                                 : Portuguese
  339. Default                                  : No
  340. Forced                                   : No
  341. Text #19
  342. ID                                       : 23
  343. Format                                   : UTF-8
  344. Codec ID                                 : S_TEXT/UTF8
  345. Codec ID/Info                            : UTF-8 Plain Text
  346. Duration                                 : 1 h 55 min
  347. Bit rate                                 : 46 b/s
  348. Frame rate                               : 0.182 FPS
  349. Count of elements                        : 1256
  350. Stream size                              : 39.2 KiB (0%)
  351. Title                                    : Swedish
  352. Language                                 : Swedish
  353. Default                                  : No
  354. Forced                                   : No
  355. Text #20
  356. ID                                       : 24
  357. Format                                   : UTF-8
  358. Codec ID                                 : S_TEXT/UTF8
  359. Codec ID/Info                            : UTF-8 Plain Text
  360. Duration                                 : 1 h 55 min
  361. Bit rate                                 : 99 b/s
  362. Frame rate                               : 0.157 FPS
  363. Count of elements                        : 1080
  364. Stream size                              : 83.5 KiB (0%)
  365. Title                                    : Thai
  366. Language                                 : Thai
  367. Default                                  : No
  368. Forced                                   : No
  369. Text #21
  370. ID                                       : 25
  371. Format                                   : UTF-8
  372. Codec ID                                 : S_TEXT/UTF8
  373. Codec ID/Info                            : UTF-8 Plain Text
  374. Duration                                 : 1 h 55 min
  375. Bit rate                                 : 47 b/s
  376. Frame rate                               : 0.139 FPS
  377. Count of elements                        : 959
  378. Stream size                              : 40.0 KiB (0%)
  379. Title                                    : Turkish
  380. Language                                 : Turkish
  381. Default                                  : No
  382. Forced                                   : No
  383. Menu
  384. 00:00:00.000                             : en:Chapter 01
  385. 00:15:02.000                             : en:Chapter 02
  386. 00:30:06.000                             : en:Chapter 03
  387. 00:45:16.000                             : en:Chapter 04
  388. 01:01:57.000                             : en:Chapter 05
  389. 01:17:23.000                             : en:Chapter 06
  390. 01:35:15.500                             : en:Chapter 07
  391. 01:45:56.000                             : en:Chapter 08
复制代码




                                       
                                       

                                       
                                       
                                       




回复

使用道具 举报

蓝光币
143
发表于 2022-7-30 09:57:53 | 显示全部楼层
老人老片,再欣赏。
回复 支持 反对

使用道具 举报

懒得打字嘛,点击右侧快捷回复 【右侧内容,后台自定义】
您需要登录后才可以回帖 登录 | 立即加入

本版积分规则

Archiver|小黑屋| 蓝光电影网 |网站地图

Copyright © 2021 Comsenz Inc. Powered by 蓝光电影网

蓝光电影网

本站内容由用户自主分享和转载自互联网,转载目的在于传递更多信息,并不代表本网赞同其观点和对其真实性负责。

如有侵权、违反国家法律政策行为,请联系我们,我们会第一时间及时清除和处理!

举报反馈邮箱:[email protected]

快速回复 返回顶部 返回列表