找回密码

蓝光电影网

查看: 53|回复: 0

[2160p] 野战排 Platoon.1986.2160p.WEB-DL.DD5.1.DV.MP4.x265-DVSUX 20.78GB

[复制链接]
蓝光币
886
发表于 2022-7-29 17:22:27 | 显示全部楼层 |阅读模式


◎标  题 野战排
◎译  名 杀戮疆场(港) / 进步高棉(台)
◎片  名 Platoon
◎年  代 1986
◎产  地 美国 / 英国
◎类  别 剧情 / 行动 / 战争
◎语  言 英语 / 越南语
◎上映日期 1986-12-19
◎IMDb评分 8.1/10 (397778人评价)
◎IMDb链接 https://www.imdb.com/title/tt0091763/
◎豆瓣评分 8.2/10 (39120人评价)
◎豆瓣链接 https://movie.douban.com/subject/1293396/
◎片  长 120分钟
◎导  演 奥利佛·斯通 Oliver Stone
◎编  剧 奥利佛·斯通 Oliver Stone
◎演  员 威廉·达福 Willem Dafoe
       查理·辛 Charlie Sheen
       汤姆·贝伦杰 Tom Berenger
       凯斯·大卫 Keith David
       凯文·狄龙 Kevin Dillon
       马克·摩斯 Mark Moses
       约翰尼·德普 Johnny Depp
       福里斯特·惠特克 Forest Whitaker
       理查德·埃德森 Richard Edson
       奥利佛·斯通 Oliver Stone
       托尼·托德 Tony Todd
◎标  签 战争 / 越战 / 美国 / 奥利弗·斯通 / 美国电影 / 典范 / 1986 / OliverStone
◎简  介

    泰勒(查理•辛 Charlie Sheen 饰)是越战时代的一位美国大门生,他前往越南火线去服兵役,被分到了一个步卒军队。军队里有两小我一向对他影响颇大——伊莱亚斯(威廉•达福 Willem Dafoe 饰)和巴恩斯(汤姆•贝伦杰 Tom Berenger 饰)。他们两人对战争的看法截然分歧,前者不忍残杀无辜,尔后者却救死扶伤,泰勒心里很是迷惑,到底谁对战争的看法才是正确。                                                                      巴恩斯展开了一场残暴的屠杀,越南整条村子都流血成河。伊莱亚斯力劝好友不要如此残暴,却遭致二人关系的裂缝。巴恩斯更思疑伊莱亚斯向下属打小报告,友谊变成妒恨。因而,在一次森林战争中,他背着一切人,向伊莱亚斯扣下了扳机。                                                                      泰勒却洞察了这一切,他心里终究有了答案。
  1. Video
  2. ID                                       : 1
  3. Format                                   : HEVC
  4. Format/Info                              : High Efficiency Video Coding
  5. Format profile                           : Main [email protected]@High
  6. HDR format                               : Dolby Vision, Version 1.0, dvhe.05.06, BL+RPU
  7. Codec ID                                 : dvhe
  8. Codec ID/Info                            : High Efficiency Video Coding with Dolby Vision
  9. Duration                                 : 1 h 59 min
  10. Bit rate                                 : 24.4 Mb/s
  11. Width                                    : 3 832 pixels
  12. Height                                   : 2 072 pixels
  13. Original height                          : 2 068 pixels
  14. Display aspect ratio                     : 1.85:1
  15. Original display aspect ratio            : 1.85:1
  16. Frame rate mode                          : Constant
  17. Frame rate                               : 23.976 (24000/1001/189150) FPS
  18. Color space                              : YUV
  19. Chroma subsampling                       : 4:2:0
  20. Bit depth                                : 10 bits
  21. Bits/(Pixel*Frame)                       : 0.128
  22. Stream size                              : 20.5 GiB (98%)
  23. Default                                  : Yes
  24. Alternate group                          : 1
  25. Encoded date                             : UTC 2022-07-29 04:52:14
  26. Tagged date                              : UTC 2022-07-29 04:54:52
  27. Codec configuration box                  : hvcC+dvcC
  28. Audio
  29. ID                                       : 2
  30. Format                                   : AC-3
  31. Format/Info                              : Audio Coding 3
  32. Commercial name                          : Dolby Digital
  33. Codec ID                                 : ac-3
  34. Duration                                 : 1 h 59 min
  35. Bit rate mode                            : Constant
  36. Bit rate                                 : 384 kb/s
  37. Maximum bit rate                         : 406 kb/s
  38. Channel(s)                               : 6 channels
  39. Channel layout                           : L R C LFE Ls Rs
  40. Sampling rate                            : 48.0 kHz
  41. Frame rate                               : 31.250 FPS (1536 SPF)
  42. Compression mode                         : Lossy
  43. Stream size                              : 329 MiB (2%)
  44. Title                                    : English
  45. Language                                 : English
  46. Service kind                             : Complete Main
  47. Default                                  : Yes
  48. Alternate group                          : 1
  49. Tagged date                              : UTC 2022-07-29 04:54:52
  50. Text #1
  51. ID                                       : 3
  52. Format                                   : Timed Text
  53. Codec ID                                 : tx3g
  54. Duration                                 : 1 h 55 min
  55. Bit rate mode                            : Variable
  56. Bit rate                                 : 72 b/s
  57. Frame rate                               : 0.466 FPS
  58. Stream size                              : 61.0 KiB (0%)
  59. Title                                    : English
  60. Language                                 : English
  61. Forced                                   : No
  62. Encoded date                             : UTC 2022-07-29 04:54:47
  63. Tagged date                              : UTC 2022-07-29 04:54:52
  64. Text #2
  65. ID                                       : 4
  66. Format                                   : Timed Text
  67. Codec ID                                 : tx3g
  68. Duration                                 : 1 h 55 min
  69. Bit rate mode                            : Variable
  70. Bit rate                                 : 62 b/s
  71. Frame rate                               : 0.362 FPS
  72. Stream size                              : 52.3 KiB (0%)
  73. Title                                    : English
  74. Language                                 : English
  75. Forced                                   : No
  76. Encoded date                             : UTC 2022-07-29 04:54:49
  77. Tagged date                              : UTC 2022-07-29 04:54:52
  78. Text #3
  79. ID                                       : 5
  80. Format                                   : Timed Text
  81. Codec ID                                 : tx3g
  82. Duration                                 : 1 h 55 min
  83. Bit rate mode                            : Variable
  84. Bit rate                                 : 38 b/s
  85. Frame rate                               : 0.311 FPS
  86. Stream size                              : 32.2 KiB (0%)
  87. Title                                    : Chinese-Traditional
  88. Language                                 : Chinese
  89. Forced                                   : No
  90. Encoded date                             : UTC 2022-07-29 04:54:49
  91. Tagged date                              : UTC 2022-07-29 04:54:52
  92. Text #4
  93. ID                                       : 6
  94. Format                                   : Timed Text
  95. Codec ID                                 : tx3g
  96. Duration                                 : 1 h 55 min
  97. Bit rate mode                            : Variable
  98. Bit rate                                 : 53 b/s
  99. Frame rate                               : 0.276 FPS
  100. Stream size                              : 44.6 KiB (0%)
  101. Title                                    : Czech
  102. Language                                 : Czech
  103. Forced                                   : No
  104. Encoded date                             : UTC 2022-07-29 04:54:49
  105. Tagged date                              : UTC 2022-07-29 04:54:52
  106. Text #5
  107. ID                                       : 7
  108. Format                                   : Timed Text
  109. Codec ID                                 : tx3g
  110. Duration                                 : 1 h 55 min
  111. Bit rate mode                            : Variable
  112. Bit rate                                 : 59 b/s
  113. Frame rate                               : 0.362 FPS
  114. Stream size                              : 50.1 KiB (0%)
  115. Title                                    : Danish
  116. Language                                 : Danish
  117. Forced                                   : No
  118. Encoded date                             : UTC 2022-07-29 04:54:50
  119. Tagged date                              : UTC 2022-07-29 04:54:52
  120. Text #6
  121. ID                                       : 8
  122. Format                                   : Timed Text
  123. Codec ID                                 : tx3g
  124. Duration                                 : 1 h 55 min
  125. Bit rate mode                            : Variable
  126. Bit rate                                 : 54 b/s
  127. Frame rate                               : 0.362 FPS
  128. Stream size                              : 46.1 KiB (0%)
  129. Title                                    : Dutch
  130. Language                                 : Dutch
  131. Forced                                   : No
  132. Encoded date                             : UTC 2022-07-29 04:54:50
  133. Tagged date                              : UTC 2022-07-29 04:54:52
  134. Text #7
  135. ID                                       : 9
  136. Format                                   : Timed Text
  137. Codec ID                                 : tx3g
  138. Duration                                 : 1 h 55 min
  139. Bit rate mode                            : Variable
  140. Bit rate                                 : 55 b/s
  141. Frame rate                               : 0.362 FPS
  142. Stream size                              : 46.6 KiB (0%)
  143. Title                                    : Finnish
  144. Language                                 : Finnish
  145. Forced                                   : No
  146. Encoded date                             : UTC 2022-07-29 04:54:50
  147. Tagged date                              : UTC 2022-07-29 04:54:52
  148. Text #8
  149. ID                                       : 10
  150. Format                                   : Timed Text
  151. Codec ID                                 : tx3g
  152. Duration                                 : 1 h 59 min
  153. Bit rate mode                            : Variable
  154. Bit rate                                 : 59 b/s
  155. Frame rate                               : 0.350 FPS
  156. Stream size                              : 51.6 KiB (0%)
  157. Title                                    : French
  158. Language                                 : French
  159. Forced                                   : No
  160. Encoded date                             : UTC 2022-07-29 04:54:50
  161. Tagged date                              : UTC 2022-07-29 04:54:52
  162. Text #9
  163. ID                                       : 11
  164. Format                                   : Timed Text
  165. Codec ID                                 : tx3g
  166. Duration                                 : 1 h 55 min
  167. Bit rate mode                            : Variable
  168. Bit rate                                 : 63 b/s
  169. Frame rate                               : 0.362 FPS
  170. Stream size                              : 53.6 KiB (0%)
  171. Title                                    : German
  172. Language                                 : German
  173. Forced                                   : No
  174. Encoded date                             : UTC 2022-07-29 04:54:50
  175. Tagged date                              : UTC 2022-07-29 04:54:52
  176. Text #10
  177. ID                                       : 12
  178. Format                                   : Timed Text
  179. Codec ID                                 : tx3g
  180. Duration                                 : 1 h 55 min
  181. Bit rate mode                            : Variable
  182. Bit rate                                 : 52 b/s
  183. Frame rate                               : 0.276 FPS
  184. Stream size                              : 44.0 KiB (0%)
  185. Title                                    : Hungarian
  186. Language                                 : Hungarian
  187. Forced                                   : No
  188. Encoded date                             : UTC 2022-07-29 04:54:50
  189. Tagged date                              : UTC 2022-07-29 04:54:52
  190. Text #11
  191. ID                                       : 13
  192. Format                                   : Timed Text
  193. Codec ID                                 : tx3g
  194. Duration                                 : 1 h 55 min
  195. Bit rate mode                            : Variable
  196. Bit rate                                 : 58 b/s
  197. Frame rate                               : 0.362 FPS
  198. Stream size                              : 49.6 KiB (0%)
  199. Title                                    : Italian
  200. Language                                 : Italian
  201. Forced                                   : No
  202. Encoded date                             : UTC 2022-07-29 04:54:50
  203. Tagged date                              : UTC 2022-07-29 04:54:52
  204. Text #12
  205. ID                                       : 14
  206. Format                                   : Timed Text
  207. Codec ID                                 : tx3g
  208. Duration                                 : 1 h 55 min
  209. Bit rate mode                            : Variable
  210. Bit rate                                 : 36 b/s
  211. Frame rate                               : 0.261 FPS
  212. Stream size                              : 30.6 KiB (0%)
  213. Title                                    : Japanese
  214. Language                                 : Japanese
  215. Forced                                   : No
  216. Encoded date                             : UTC 2022-07-29 04:54:51
  217. Tagged date                              : UTC 2022-07-29 04:54:52
  218. Text #13
  219. ID                                       : 15
  220. Format                                   : Timed Text
  221. Codec ID                                 : tx3g
  222. Duration                                 : 1 h 55 min
  223. Bit rate mode                            : Variable
  224. Bit rate                                 : 58 b/s
  225. Frame rate                               : 0.362 FPS
  226. Stream size                              : 49.2 KiB (0%)
  227. Title                                    : Norwegian
  228. Language                                 : Norwegian
  229. Forced                                   : No
  230. Encoded date                             : UTC 2022-07-29 04:54:51
  231. Tagged date                              : UTC 2022-07-29 04:54:52
  232. Text #14
  233. ID                                       : 16
  234. Format                                   : Timed Text
  235. Codec ID                                 : tx3g
  236. Duration                                 : 1 h 55 min
  237. Bit rate mode                            : Variable
  238. Bit rate                                 : 53 b/s
  239. Frame rate                               : 0.276 FPS
  240. Stream size                              : 44.7 KiB (0%)
  241. Title                                    : Polish
  242. Language                                 : Polish
  243. Forced                                   : No
  244. Encoded date                             : UTC 2022-07-29 04:54:51
  245. Tagged date                              : UTC 2022-07-29 04:54:52
  246. Text #15
  247. ID                                       : 17
  248. Format                                   : Timed Text
  249. Codec ID                                 : tx3g
  250. Duration                                 : 1 h 55 min
  251. Bit rate mode                            : Variable
  252. Bit rate                                 : 54 b/s
  253. Frame rate                               : 0.276 FPS
  254. Stream size                              : 45.9 KiB (0%)
  255. Title                                    : Portuguese
  256. Language                                 : Portuguese
  257. Forced                                   : No
  258. Encoded date                             : UTC 2022-07-29 04:54:51
  259. Tagged date                              : UTC 2022-07-29 04:54:52
  260. Text #16
  261. ID                                       : 18
  262. Format                                   : Timed Text
  263. Codec ID                                 : tx3g
  264. Duration                                 : 1 h 55 min
  265. Bit rate mode                            : Variable
  266. Bit rate                                 : 54 b/s
  267. Frame rate                               : 0.313 FPS
  268. Stream size                              : 45.5 KiB (0%)
  269. Title                                    : Portuguese-BR
  270. Language                                 : Portuguese
  271. Forced                                   : No
  272. Encoded date                             : UTC 2022-07-29 04:54:51
  273. Tagged date                              : UTC 2022-07-29 04:54:52
  274. Text #17
  275. ID                                       : 19
  276. Format                                   : Timed Text
  277. Codec ID                                 : tx3g
  278. Duration                                 : 1 h 55 min
  279. Bit rate mode                            : Variable
  280. Bit rate                                 : 60 b/s
  281. Frame rate                               : 0.362 FPS
  282. Stream size                              : 50.9 KiB (0%)
  283. Title                                    : Spanish
  284. Language                                 : Spanish
  285. Forced                                   : No
  286. Encoded date                             : UTC 2022-07-29 04:54:51
  287. Tagged date                              : UTC 2022-07-29 04:54:52
  288. Text #18
  289. ID                                       : 20
  290. Format                                   : Timed Text
  291. Codec ID                                 : tx3g
  292. Duration                                 : 1 h 55 min
  293. Bit rate mode                            : Variable
  294. Bit rate                                 : 59 b/s
  295. Frame rate                               : 0.362 FPS
  296. Stream size                              : 50.4 KiB (0%)
  297. Title                                    : Spanish-EU
  298. Language                                 : Spanish
  299. Forced                                   : No
  300. Encoded date                             : UTC 2022-07-29 04:54:51
  301. Tagged date                              : UTC 2022-07-29 04:54:52
  302. Text #19
  303. ID                                       : 21
  304. Format                                   : Timed Text
  305. Codec ID                                 : tx3g
  306. Duration                                 : 1 h 55 min
  307. Bit rate mode                            : Variable
  308. Bit rate                                 : 54 b/s
  309. Frame rate                               : 0.362 FPS
  310. Stream size                              : 46.0 KiB (0%)
  311. Title                                    : Swedish
  312. Language                                 : Swedish
  313. Forced                                   : No
  314. Encoded date                             : UTC 2022-07-29 04:54:51
  315. Tagged date                              : UTC 2022-07-29 04:54:52
  316. Text #20
  317. ID                                       : 22
  318. Format                                   : Timed Text
  319. Codec ID                                 : tx3g
  320. Duration                                 : 1 h 55 min
  321. Bit rate mode                            : Variable
  322. Bit rate                                 : 105 b/s
  323. Frame rate                               : 0.311 FPS
  324. Stream size                              : 89.1 KiB (0%)
  325. Title                                    : Thai
  326. Language                                 : Thai
  327. Forced                                   : No
  328. Encoded date                             : UTC 2022-07-29 04:54:52
  329. Tagged date                              : UTC 2022-07-29 04:54:52
  330. Text #21
  331. ID                                       : 23
  332. Format                                   : Timed Text
  333. Codec ID                                 : tx3g
  334. Duration                                 : 1 h 55 min
  335. Bit rate mode                            : Variable
  336. Bit rate                                 : 53 b/s
  337. Frame rate                               : 0.276 FPS
  338. Stream size                              : 44.8 KiB (0%)
  339. Title                                    : Turkish
  340. Language                                 : Turkish
  341. Forced                                   : No
  342. Encoded date                             : UTC 2022-07-29 04:54:52
  343. Tagged date                              : UTC 2022-07-29 04:54:52
复制代码






                                       
                                       

                                       
                                       
                                       




回复

使用道具 举报

懒得打字嘛,点击右侧快捷回复 【右侧内容,后台自定义】
您需要登录后才可以回帖 登录 | 立即加入

本版积分规则

Archiver|小黑屋| 蓝光电影网 |网站地图

Copyright © 2021 Comsenz Inc. Powered by 蓝光电影网

蓝光电影网

本站内容由用户自主分享和转载自互联网,转载目的在于传递更多信息,并不代表本网赞同其观点和对其真实性负责。

如有侵权、违反国家法律政策行为,请联系我们,我们会第一时间及时清除和处理!

举报反馈邮箱:[email protected]

快速回复 返回顶部 返回列表