找回密码

蓝光电影网

查看: 16|回复: 0

[剧情] 塞塔尼亚 Sertania.2018.PORTUGUESE.1080p.AMZN.WEBRip.DDP5.1.x264-DODEN 5.41GB

[复制链接]
蓝光币
886
发表于 2022-7-29 17:45:47 | 显示全部楼层 |阅读模式


◎标  题 塞塔尼亚
◎片  名 Sertânia
◎年  代 2018
◎产  地 巴西
◎类  别 剧情 / 西部
◎语  言 葡萄牙语
◎上映日期 2018-05-20(巴西)
◎IMDb评分 7.6/10 (125人评价)
◎IMDb链接 https://www.imdb.com/title/tt11275354/
◎豆瓣链接 https://movie.douban.com/subject/35241140/
◎片  长 97分钟
◎简  介

  When bandits take Sertânia town, Antão gets wounded, arrested and left to die. The events are projected by fever dreams from Antão's delirious mind.
  1. Video
  2. ID                                       : 1
  3. Format                                   : AVC
  4. Format/Info                              : Advanced Video Codec
  5. Format profile                           : [email protected]
  6. Format settings                          : CABAC / 2 Ref Frames
  7. Format settings, CABAC                   : Yes
  8. Format settings, Reference frames        : 2 frames
  9. Codec ID                                 : V_MPEG4/ISO/AVC
  10. Duration                                 : 1 h 37 min
  11. Bit rate                                 : 7 560 kb/s
  12. Width                                    : 1 920 pixels
  13. Height                                   : 1 080 pixels
  14. Display aspect ratio                     : 16:9
  15. Frame rate mode                          : Constant
  16. Frame rate                               : 23.976 (24000/1001/189150) FPS
  17. Color space                              : YUV
  18. Chroma subsampling                       : 4:2:0
  19. Bit depth                                : 8 bits
  20. Scan type                                : Progressive
  21. Bits/(Pixel*Frame)                       : 0.152
  22. Stream size                              : 5.15 GiB (95%)
  23. Writing library                          : x264 core 155 r2901 7d0ff22
  24. Language                                 : Portuguese
  25. Default                                  : Yes
  26. Forced                                   : No
  27. Color range                              : Limited
  28. Color primaries                          : BT.709
  29. Transfer characteristics                 : BT.709
  30. Matrix coefficients                      : BT.709
  31. Audio
  32. ID                                       : 2
  33. Format                                   : E-AC-3
  34. Format/Info                              : Enhanced AC-3
  35. Commercial name                          : Dolby Digital Plus
  36. Codec ID                                 : A_EAC3
  37. Duration                                 : 1 h 37 min
  38. Bit rate mode                            : Constant
  39. Bit rate                                 : 384 kb/s
  40. Channel(s)                               : 6 channels
  41. Channel layout                           : L R C LFE Ls Rs
  42. Sampling rate                            : 48.0 kHz
  43. Frame rate                               : 31.250 FPS (1536 SPF)
  44. Compression mode                         : Lossy
  45. Stream size                              : 268 MiB (5%)
  46. Language                                 : Portuguese
  47. Service kind                             : Complete Main
  48. Default                                  : Yes
  49. Forced                                   : No
  50. Text #1
  51. ID                                       : 3
  52. Format                                   : UTF-8
  53. Codec ID                                 : S_TEXT/UTF8
  54. Codec ID/Info                            : UTF-8 Plain Text
  55. Duration                                 : 22 s 457 ms
  56. Bit rate                                 : 74 b/s
  57. Frame rate                               : 0.267 FPS
  58. Count of elements                        : 6
  59. Stream size                              : 209 Bytes (0%)
  60. Title                                    : Forced
  61. Language                                 : Portuguese
  62. Default                                  : Yes
  63. Forced                                   : No
  64. Text #2
  65. ID                                       : 4
  66. Format                                   : UTF-8
  67. Codec ID                                 : S_TEXT/UTF8
  68. Codec ID/Info                            : UTF-8 Plain Text
  69. Duration                                 : 1 h 30 min
  70. Bit rate                                 : 33 b/s
  71. Frame rate                               : 0.134 FPS
  72. Count of elements                        : 726
  73. Stream size                              : 22.0 KiB (0%)
  74. Language                                 : English
  75. Default                                  : No
  76. Forced                                   : No
复制代码







                                       
                                       

                                       
                                       
                                       




回复

使用道具 举报

懒得打字嘛,点击右侧快捷回复 【右侧内容,后台自定义】
您需要登录后才可以回帖 登录 | 立即加入

本版积分规则

Archiver|小黑屋| 蓝光电影网 |网站地图

Copyright © 2021 Comsenz Inc. Powered by 蓝光电影网

蓝光电影网

本站内容由用户自主分享和转载自互联网,转载目的在于传递更多信息,并不代表本网赞同其观点和对其真实性负责。

如有侵权、违反国家法律政策行为,请联系我们,我们会第一时间及时清除和处理!

举报反馈邮箱:[email protected]

快速回复 返回顶部 返回列表