找回密码

蓝光电影网

查看: 58|回复: 0

[剧情] 坐推土机的少女 The.Girl.on.a.Bulldozer.2022.KOREAN.1080p.WEBRip.AAC2.0.x264-NOGRP 2.72GB

[复制链接]
蓝光币
1022
发表于 2022-7-29 17:45:25 | 显示全部楼层 |阅读模式


◎标  题 坐推土机的少女
◎译  名 推土机上的少女 / The Girl on a Bulldozer
◎片  名 불도저에 탄 소녀
◎年  代 2022
◎产  地 韩国
◎类  别 剧情
◎语  言 韩语
◎上映日期 2022-04-07(韩国)
◎IMDb评分 6.4/10 (146人评价)
◎IMDb链接 https://www.imdb.com/title/tt19632924/
◎豆瓣评分 6.3/10 (250人评价)
◎豆瓣链接 https://movie.douban.com/subject/35059350/
◎片  长 112分钟
◎导  演 朴利雄 Park Ri-woong
◎编  剧 朴利雄 Park Ri-woong
◎演  员 金惠奫 Hye-yoon Kim
       朴赫权 Hyuk-kwon Park
       朴时宇 Park Si-woo
       韩慧芝 Han Hye-Ji
       成汝珍 Sung Yeo Jin
       李辉钟 Lee Hwi Jong
       梁素敏 So-min Yang
◎简  介

  报告的是女儿惠英(金惠允饰)挖掘遭受突如其来的变乱中父亲行迹的故事。
  1. Video
  2. ID                                       : 1
  3. Format                                   : AVC
  4. Format/Info                              : Advanced Video Codec
  5. Format profile                           : [email protected]
  6. Format settings                          : CABAC / 4 Ref Frames
  7. Format settings, CABAC                   : Yes
  8. Format settings, Reference frames        : 4 frames
  9. Codec ID                                 : V_MPEG4/ISO/AVC
  10. Duration                                 : 1 h 48 min
  11. Bit rate                                 : 3 459 kb/s
  12. Width                                    : 1 920 pixels
  13. Height                                   : 1 080 pixels
  14. Display aspect ratio                     : 16:9
  15. Frame rate mode                          : Constant
  16. Frame rate                               : 29.970 (30000/1001/189150) FPS
  17. Color space                              : YUV
  18. Chroma subsampling                       : 4:2:0
  19. Bit depth                                : 8 bits
  20. Scan type                                : Progressive
  21. Bits/(Pixel*Frame)                       : 0.056
  22. Stream size                              : 2.62 GiB (96%)
  23. Default                                  : Yes
  24. Forced                                   : No
  25. Audio
  26. ID                                       : 2
  27. Format                                   : AAC LC
  28. Format/Info                              : Advanced Audio Codec Low Complexity
  29. Codec ID                                 : A_AAC-2
  30. Duration                                 : 1 h 48 min
  31. Bit rate                                 : 125 kb/s
  32. Channel(s)                               : 2 channels
  33. Channel layout                           : L R
  34. Sampling rate                            : 48.0 kHz
  35. Frame rate                               : 46.875 FPS (1024 SPF)
  36. Compression mode                         : Lossy
  37. Stream size                              : 97.2 MiB (3%)
  38. Language                                 : Korean
  39. Default                                  : Yes
  40. Forced                                   : No
  41. Text #1
  42. ID                                       : 3
  43. Format                                   : UTF-8
  44. Codec ID                                 : S_TEXT/UTF8
  45. Codec ID/Info                            : UTF-8 Plain Text
  46. Duration                                 : 1 h 44 min
  47. Bit rate                                 : 54 b/s
  48. Frame rate                               : 0.242 FPS
  49. Count of elements                        : 1520
  50. Stream size                              : 41.7 KiB (0%)
  51. Language                                 : English
  52. Default                                  : Yes
  53. Forced                                   : No
  54. Text #2
  55. ID                                       : 4
  56. Format                                   : UTF-8
  57. Codec ID                                 : S_TEXT/UTF8
  58. Codec ID/Info                            : UTF-8 Plain Text
  59. Duration                                 : 1 h 44 min
  60. Bit rate                                 : 56 b/s
  61. Frame rate                               : 0.242 FPS
  62. Count of elements                        : 1520
  63. Stream size                              : 43.6 KiB (0%)
  64. Language                                 : Indonesian
  65. Default                                  : No
  66. Forced                                   : No
  67. Text #3
  68. ID                                       : 5
  69. Format                                   : UTF-8
  70. Codec ID                                 : S_TEXT/UTF8
  71. Codec ID/Info                            : UTF-8 Plain Text
  72. Duration                                 : 1 h 44 min
  73. Bit rate                                 : 58 b/s
  74. Frame rate                               : 0.242 FPS
  75. Count of elements                        : 1520
  76. Stream size                              : 44.7 KiB (0%)
  77. Language                                 : Malay
  78. Default                                  : No
  79. Forced                                   : No
  80. Text #4
  81. ID                                       : 6
  82. Format                                   : UTF-8
  83. Codec ID                                 : S_TEXT/UTF8
  84. Codec ID/Info                            : UTF-8 Plain Text
  85. Duration                                 : 1 h 44 min
  86. Bit rate                                 : 130 b/s
  87. Frame rate                               : 0.230 FPS
  88. Count of elements                        : 1442
  89. Stream size                              : 100.0 KiB (0%)
  90. Language                                 : Thai
  91. Default                                  : No
  92. Forced                                   : No
  93. Text #5
  94. ID                                       : 7
  95. Format                                   : UTF-8
  96. Codec ID                                 : S_TEXT/UTF8
  97. Codec ID/Info                            : UTF-8 Plain Text
  98. Duration                                 : 1 h 44 min
  99. Bit rate                                 : 46 b/s
  100. Frame rate                               : 0.242 FPS
  101. Count of elements                        : 1520
  102. Stream size                              : 35.8 KiB (0%)
  103. Language                                 : Chinese
  104. Default                                  : No
  105. Forced                                   : No
  106. Text #6
  107. ID                                       : 8
  108. Format                                   : UTF-8
  109. Codec ID                                 : S_TEXT/UTF8
  110. Codec ID/Info                            : UTF-8 Plain Text
  111. Duration                                 : 1 h 44 min
  112. Bit rate                                 : 46 b/s
  113. Frame rate                               : 0.242 FPS
  114. Count of elements                        : 1520
  115. Stream size                              : 35.8 KiB (0%)
  116. Language                                 : Chinese
  117. Default                                  : No
  118. Forced                                   : No
复制代码






                                       
                                       

                                       
                                       
                                       




回复

使用道具 举报

懒得打字嘛,点击右侧快捷回复 【右侧内容,后台自定义】
您需要登录后才可以回帖 登录 | 立即加入

本版积分规则

Archiver|小黑屋| 蓝光电影网 |网站地图

Copyright © 2021 Comsenz Inc. Powered by 蓝光电影网

蓝光电影网

本站内容由用户自主分享和转载自互联网,转载目的在于传递更多信息,并不代表本网赞同其观点和对其真实性负责。

如有侵权、违反国家法律政策行为,请联系我们,我们会第一时间及时清除和处理!

举报反馈邮箱:[email protected]

快速回复 返回顶部 返回列表