找回密码

蓝光电影网

查看: 30|回复: 0

[剧情] 亲爱的 Sweetheart.1977.ITALIAN.1080p.AMZN.WEBRip.DDP2.0.x264-NOGRP 7.65GB

[复制链接]
蓝光币
886
发表于 2022-7-29 18:34:08 | 显示全部楼层 |阅读模式


◎标  题 亲爱的
◎片  名 Cara sposa
◎年  代 1977
◎产  地 意大利
◎类  别 剧情 / 笑剧
◎语  言 意大利语
◎IMDb评分 6.2/10 (68人评价)
◎IMDb链接 https://www.imdb.com/title/tt0160108/
◎豆瓣链接 https://movie.douban.com/subject/35023343/
◎片  长 107分钟
  1. Video
  2. ID                                       : 1
  3. Format                                   : AVC
  4. Format/Info                              : Advanced Video Codec
  5. Format profile                           : [email protected]
  6. Format settings                          : CABAC / 4 Ref Frames
  7. Format settings, CABAC                   : Yes
  8. Format settings, Reference frames        : 4 frames
  9. Codec ID                                 : V_MPEG4/ISO/AVC
  10. Duration                                 : 1 h 48 min
  11. Bit rate mode                            : Constant
  12. Bit rate                                 : 10 000 kb/s
  13. Width                                    : 1 920 pixels
  14. Height                                   : 1 040 pixels
  15. Display aspect ratio                     : 1.85:1
  16. Frame rate mode                          : Constant
  17. Frame rate                               : 24.000 FPS
  18. Color space                              : YUV
  19. Chroma subsampling                       : 4:2:0
  20. Bit depth                                : 8 bits
  21. Scan type                                : Progressive
  22. Bits/(Pixel*Frame)                       : 0.209
  23. Stream size                              : 7.47 GiB (98%)
  24. Default                                  : Yes
  25. Forced                                   : No
  26. Color range                              : Limited
  27. Color primaries                          : BT.709
  28. Transfer characteristics                 : BT.709
  29. Matrix coefficients                      : BT.709
  30. Audio
  31. ID                                       : 2
  32. Format                                   : E-AC-3
  33. Format/Info                              : Enhanced AC-3
  34. Commercial name                          : Dolby Digital Plus
  35. Codec ID                                 : A_EAC3
  36. Duration                                 : 1 h 48 min
  37. Bit rate mode                            : Constant
  38. Bit rate                                 : 224 kb/s
  39. Channel(s)                               : 2 channels
  40. Channel layout                           : L R
  41. Sampling rate                            : 48.0 kHz
  42. Frame rate                               : 31.250 FPS (1536 SPF)
  43. Compression mode                         : Lossy
  44. Stream size                              : 174 MiB (2%)
  45. Language                                 : Italian
  46. Service kind                             : Complete Main
  47. Default                                  : Yes
  48. Forced                                   : No
  49. Text #1
  50. ID                                       : 3
  51. Format                                   : UTF-8
  52. Codec ID                                 : S_TEXT/UTF8
  53. Codec ID/Info                            : UTF-8 Plain Text
  54. Duration                                 : 1 h 45 min
  55. Bit rate                                 : 54 b/s
  56. Frame rate                               : 0.197 FPS
  57. Count of elements                        : 1249
  58. Stream size                              : 42.1 KiB (0%)
  59. Language                                 : English
  60. Default                                  : Yes
  61. Forced                                   : No
  62. Text #2
  63. ID                                       : 4
  64. Format                                   : UTF-8
  65. Codec ID                                 : S_TEXT/UTF8
  66. Codec ID/Info                            : UTF-8 Plain Text
  67. Duration                                 : 1 h 45 min
  68. Bit rate                                 : 60 b/s
  69. Frame rate                               : 0.190 FPS
  70. Count of elements                        : 1199
  71. Stream size                              : 46.4 KiB (0%)
  72. Language                                 : Italian
  73. Default                                  : No
  74. Forced                                   : No
  75. Text #3
  76. ID                                       : 5
  77. Format                                   : UTF-8
  78. Codec ID                                 : S_TEXT/UTF8
  79. Codec ID/Info                            : UTF-8 Plain Text
  80. Duration                                 : 1 h 47 min
  81. Bit rate                                 : 49 b/s
  82. Frame rate                               : 0.196 FPS
  83. Count of elements                        : 1264
  84. Stream size                              : 38.6 KiB (0%)
  85. Language                                 : Croatian
  86. Default                                  : No
  87. Forced                                   : No
  88. Text #4
  89. ID                                       : 6
  90. Format                                   : UTF-8
  91. Codec ID                                 : S_TEXT/UTF8
  92. Codec ID/Info                            : UTF-8 Plain Text
  93. Duration                                 : 1 h 47 min
  94. Bit rate                                 : 55 b/s
  95. Frame rate                               : 0.194 FPS
  96. Count of elements                        : 1250
  97. Stream size                              : 43.5 KiB (0%)
  98. Language                                 : Czech
  99. Default                                  : No
  100. Forced                                   : No
  101. Text #5
  102. ID                                       : 7
  103. Format                                   : UTF-8
  104. Codec ID                                 : S_TEXT/UTF8
  105. Codec ID/Info                            : UTF-8 Plain Text
  106. Duration                                 : 1 h 47 min
  107. Bit rate                                 : 54 b/s
  108. Frame rate                               : 0.192 FPS
  109. Count of elements                        : 1236
  110. Stream size                              : 42.8 KiB (0%)
  111. Language                                 : Danish
  112. Default                                  : No
  113. Forced                                   : No
  114. Text #6
  115. ID                                       : 8
  116. Format                                   : UTF-8
  117. Codec ID                                 : S_TEXT/UTF8
  118. Codec ID/Info                            : UTF-8 Plain Text
  119. Duration                                 : 1 h 47 min
  120. Bit rate                                 : 54 b/s
  121. Frame rate                               : 0.187 FPS
  122. Count of elements                        : 1206
  123. Stream size                              : 43.0 KiB (0%)
  124. Language                                 : Dutch
  125. Default                                  : No
  126. Forced                                   : No
  127. Text #7
  128. ID                                       : 9
  129. Format                                   : UTF-8
  130. Codec ID                                 : S_TEXT/UTF8
  131. Codec ID/Info                            : UTF-8 Plain Text
  132. Duration                                 : 1 h 47 min
  133. Bit rate                                 : 60 b/s
  134. Frame rate                               : 0.192 FPS
  135. Count of elements                        : 1238
  136. Stream size                              : 47.8 KiB (0%)
  137. Language                                 : Finnish
  138. Default                                  : No
  139. Forced                                   : No
  140. Text #8
  141. ID                                       : 10
  142. Format                                   : UTF-8
  143. Codec ID                                 : S_TEXT/UTF8
  144. Codec ID/Info                            : UTF-8 Plain Text
  145. Duration                                 : 1 h 47 min
  146. Bit rate                                 : 55 b/s
  147. Frame rate                               : 0.196 FPS
  148. Count of elements                        : 1262
  149. Stream size                              : 43.7 KiB (0%)
  150. Language                                 : French
  151. Default                                  : No
  152. Forced                                   : No
  153. Text #9
  154. ID                                       : 11
  155. Format                                   : UTF-8
  156. Codec ID                                 : S_TEXT/UTF8
  157. Codec ID/Info                            : UTF-8 Plain Text
  158. Duration                                 : 1 h 47 min
  159. Bit rate                                 : 58 b/s
  160. Frame rate                               : 0.194 FPS
  161. Count of elements                        : 1248
  162. Stream size                              : 46.3 KiB (0%)
  163. Language                                 : German
  164. Default                                  : No
  165. Forced                                   : No
  166. Text #10
  167. ID                                       : 12
  168. Format                                   : UTF-8
  169. Codec ID                                 : S_TEXT/UTF8
  170. Codec ID/Info                            : UTF-8 Plain Text
  171. Duration                                 : 1 h 47 min
  172. Bit rate                                 : 94 b/s
  173. Frame rate                               : 0.194 FPS
  174. Count of elements                        : 1249
  175. Stream size                              : 74.5 KiB (0%)
  176. Language                                 : Greek
  177. Default                                  : No
  178. Forced                                   : No
  179. Text #11
  180. ID                                       : 13
  181. Format                                   : UTF-8
  182. Codec ID                                 : S_TEXT/UTF8
  183. Codec ID/Info                            : UTF-8 Plain Text
  184. Duration                                 : 1 h 47 min
  185. Bit rate                                 : 56 b/s
  186. Frame rate                               : 0.194 FPS
  187. Count of elements                        : 1251
  188. Stream size                              : 44.5 KiB (0%)
  189. Language                                 : Hungarian
  190. Default                                  : No
  191. Forced                                   : No
  192. Text #12
  193. ID                                       : 14
  194. Format                                   : UTF-8
  195. Codec ID                                 : S_TEXT/UTF8
  196. Codec ID/Info                            : UTF-8 Plain Text
  197. Duration                                 : 1 h 47 min
  198. Bit rate                                 : 55 b/s
  199. Frame rate                               : 0.194 FPS
  200. Count of elements                        : 1250
  201. Stream size                              : 43.3 KiB (0%)
  202. Language                                 : Norwegian
  203. Default                                  : No
  204. Forced                                   : No
  205. Text #13
  206. ID                                       : 15
  207. Format                                   : UTF-8
  208. Codec ID                                 : S_TEXT/UTF8
  209. Codec ID/Info                            : UTF-8 Plain Text
  210. Duration                                 : 1 h 47 min
  211. Bit rate                                 : 50 b/s
  212. Frame rate                               : 0.203 FPS
  213. Count of elements                        : 1308
  214. Stream size                              : 40.0 KiB (0%)
  215. Language                                 : Polish
  216. Default                                  : No
  217. Forced                                   : No
  218. Text #14
  219. ID                                       : 16
  220. Format                                   : UTF-8
  221. Codec ID                                 : S_TEXT/UTF8
  222. Codec ID/Info                            : UTF-8 Plain Text
  223. Duration                                 : 1 h 47 min
  224. Bit rate                                 : 54 b/s
  225. Frame rate                               : 0.194 FPS
  226. Count of elements                        : 1250
  227. Stream size                              : 42.5 KiB (0%)
  228. Language                                 : Portuguese
  229. Default                                  : No
  230. Forced                                   : No
  231. Text #15
  232. ID                                       : 17
  233. Format                                   : UTF-8
  234. Codec ID                                 : S_TEXT/UTF8
  235. Codec ID/Info                            : UTF-8 Plain Text
  236. Duration                                 : 1 h 47 min
  237. Bit rate                                 : 60 b/s
  238. Frame rate                               : 0.194 FPS
  239. Count of elements                        : 1249
  240. Stream size                              : 47.6 KiB (0%)
  241. Language                                 : Romanian
  242. Default                                  : No
  243. Forced                                   : No
  244. Text #16
  245. ID                                       : 18
  246. Format                                   : UTF-8
  247. Codec ID                                 : S_TEXT/UTF8
  248. Codec ID/Info                            : UTF-8 Plain Text
  249. Duration                                 : 1 h 47 min
  250. Bit rate                                 : 95 b/s
  251. Frame rate                               : 0.194 FPS
  252. Count of elements                        : 1250
  253. Stream size                              : 75.0 KiB (0%)
  254. Language                                 : Russian
  255. Default                                  : No
  256. Forced                                   : No
  257. Text #17
  258. ID                                       : 19
  259. Format                                   : UTF-8
  260. Codec ID                                 : S_TEXT/UTF8
  261. Codec ID/Info                            : UTF-8 Plain Text
  262. Duration                                 : 1 h 47 min
  263. Bit rate                                 : 56 b/s
  264. Frame rate                               : 0.195 FPS
  265. Count of elements                        : 1252
  266. Stream size                              : 44.1 KiB (0%)
  267. Language                                 : Spanish
  268. Default                                  : No
  269. Forced                                   : No
  270. Text #18
  271. ID                                       : 20
  272. Format                                   : UTF-8
  273. Codec ID                                 : S_TEXT/UTF8
  274. Codec ID/Info                            : UTF-8 Plain Text
  275. Duration                                 : 1 h 47 min
  276. Bit rate                                 : 54 b/s
  277. Frame rate                               : 0.194 FPS
  278. Count of elements                        : 1250
  279. Stream size                              : 42.8 KiB (0%)
  280. Language                                 : Swedish
  281. Default                                  : No
  282. Forced                                   : No
  283. Text #19
  284. ID                                       : 21
  285. Format                                   : UTF-8
  286. Codec ID                                 : S_TEXT/UTF8
  287. Codec ID/Info                            : UTF-8 Plain Text
  288. Duration                                 : 1 h 47 min
  289. Bit rate                                 : 56 b/s
  290. Frame rate                               : 0.194 FPS
  291. Count of elements                        : 1250
  292. Stream size                              : 44.2 KiB (0%)
  293. Language                                 : Turkish
  294. Default                                  : No
  295. Forced                                   : No
复制代码








                                       
                                       

                                       
                                       
                                       




回复

使用道具 举报

懒得打字嘛,点击右侧快捷回复 【右侧内容,后台自定义】
您需要登录后才可以回帖 登录 | 立即加入

本版积分规则

Archiver|小黑屋| 蓝光电影网 |网站地图

Copyright © 2021 Comsenz Inc. Powered by 蓝光电影网

蓝光电影网

本站内容由用户自主分享和转载自互联网,转载目的在于传递更多信息,并不代表本网赞同其观点和对其真实性负责。

如有侵权、违反国家法律政策行为,请联系我们,我们会第一时间及时清除和处理!

举报反馈邮箱:[email protected]

快速回复 返回顶部 返回列表