找回密码

蓝光电影网

查看: 176|回复: 1

[2160p] 舞女大盗[简繁英字幕].Hustlers.2019.UHD.BluRay.2160p.TrueHD.Atmos.7.1.x265.10bit.HDR-ALT 15.97GB

[复制链接]
蓝光币
7
发表于 2022-7-29 18:46:13 | 显示全部楼层 |阅读模式


◎标  题 舞女大盗
◎译  名 艳舞大盗(港) / 舞娘骗很大(台) / 拉客 / 皮条客 / The Hustlers at Scores
◎片  名 Hustlers
◎年  代 2019
◎产  地 美国
◎类  别 剧情 / 笑剧 / 犯罪
◎语  言 英语
◎上映日期 2019-09-07(多伦多电影节) / 2019-09-13(美国)
◎IMDb评分 6.3/10 (92409人评价)
◎IMDb链接 https://www.imdb.com/title/tt5503686/
◎豆瓣评分 6.3/10 (18757人评价)
◎豆瓣链接 https://movie.douban.com/subject/30294313/
◎片  长 110分钟
◎导  演 劳伦·斯卡法莉娅 Lorene Scafaria
◎编  剧 劳伦·斯卡法莉娅 Lorene Scafaria
◎演  员 吴恬敏 Constance Wu
       詹妮弗·洛佩兹 Jennifer Lopez
       朱丽娅·斯蒂尔斯 Julia Stiles
       柯柯·帕尔莫 Keke Palmer
       丽丽·莱因哈特 Lili Reinhart
       莉佐 Lizzo
       卡迪·B Cardi B
       玛德琳·布鲁尔 Madeline Brewer
       弗兰克·威利 Frank Whaley
       艾玛·巴蒂兹 Emma Batiz
       梅特·托利 Mette Towley
       何炜晴 Wai Ching Ho
       瓦妮莎·阿斯皮利亚加 Vanessa Aspillaga
       梅塞迪丝·鲁尔 Mercedes Ruehl
       布兰即位纳 Brandon Keener
       戴文·雷特瑞 Devin Ratray
       亚瑟·雷蒙德 Usher Raymond
       亚历克斯·布鲁 Alex Breaux
       乔·格拉瑟 Jon Glaser
       瑞斯·考罗 Rhys Coiro
       艾德·赫伯斯特曼 Ed Herbstman
       乔治娅·希梅内斯·里弗谢 Georgia Ximenes Lifsher
       斯图米·玛雅 Stormi Maya
       史蒂文·博耶 Steven Boyer
       约翰·帕拉迪诺 John Palladino
       扎克里·伯德 Zachery Byrd
       汤米·布里德摩尔 Tommy Beardmore
       列尼斯·德洛桑托斯 Leonys Delossantos
       纳迪娅·凯 Nadia Kay
       桃乐丝·麦卡锡 Doris McCarthy
       Mike Keller Mike Keller
       斯塔西亚·希特 Stacia Hitt
       崔斯·莱赛特 Trace Lysette
       曼哈顿·尼夫斯 Manhattan Nieves
       小戴维·M·桑多瓦尔 David M Sandoval Jr.
◎标  签 美国 / 犯罪 / 女性 / 2019 / 实在事务改编 / 剧情 / 欺骗 / 笑剧
◎简  介
    戴斯特尼(康斯坦斯·吴 Constance Wu 饰)是一位单身母亲,单独拉扯着年幼的孩子,日子过得很是的辛劳。无法之下,她只得来到一家脱衣舞俱乐部寻觅一份高薪的工作来供养家庭,就这样,戴斯特尼成为了一位脱衣舞女。                                                                      戴斯特尼地点的俱乐部是面向高端白领男性开放的,在这里,她相逢了同业拉莫纳(詹妮弗·洛佩兹 Jennifer Lopez 饰),她是这里人气和职位最高的舞女。善良的拉莫纳在工作上授与了戴斯特尼很多帮助,两人之间很快就建立起了信赖关系。经济危机的到来对文娱业发生了严重的影响,为了拯救朝不保夕的买卖,拉莫纳带着戴斯特尼一行人起头了她们的圈钱计划。
  1. ##### MediaInfo ######
  2. General
  3. Unique ID                                : 151801364714149503540310385904809187825 (0x7233E11FB70BBF4669526F0E47C099F1)
  4. Complete name                            : Hustlers.2019.UHD.BluRay.2160p.TrueHD.Atmos.7.1.x265.10bit.HDR-ALT.mkv
  5. Format                                   : Matroska
  6. Format version                           : Version 4
  7. File size                                : 16.0 GiB
  8. Duration                                 : 1 h 50 min
  9. Overall bit rate mode                    : Variable
  10. Overall bit rate                         : 20.8 Mb/s
  11. Encoded date                             : UTC 2019-12-09 04:20:43
  12. Writing application                      : mkvmerge v41.0.0 ('Smarra') 64-bit
  13. Writing library                          : libebml v1.3.9 + libmatroska v1.5.2
  14. Video
  15. ID                                       : 1
  16. Format                                   : HEVC
  17. Format/Info                              : High Efficiency Video Coding
  18. Format profile                           : Main [email protected]@High
  19. HDR format                               : SMPTE ST 2086, HDR10 compatible
  20. Codec ID                                 : V_MPEGH/ISO/HEVC
  21. Duration                                 : 1 h 50 min
  22. Bit rate                                 : 16.4 Mb/s
  23. Width                                    : 3 840 pixels
  24. Height                                   : 1 608 pixels
  25. Display aspect ratio                     : 2.40:1
  26. Frame rate mode                          : Constant
  27. Frame rate                               : 23.976 (24000/1001/53875) FPS
  28. Color space                              : YUV
  29. Chroma subsampling                       : 4:2:0 (Type 2)
  30. Bit depth                                : 10 bits
  31. Bits/(Pixel*Frame)                       : 0.111
  32. Stream size                              : 12.6 GiB (79%)
  33. Title                                    : HEVC, [email protected]@High, 24/1.001 fps @ 16408 kbps
  34. Writing library                          : x265 3.0_Au+4-dcbec33bfb0f:[Windows][GCC 8.2.1][64 bit] 10bit
  35. Encoding settings                        : cpuid=538751111039 / frame-threads=5 / numa-pools=44,44 / wpp / pmode / pme / no-psnr / no-ssim / log-level=2 / input-csp=1 / input-res=3840x1608 / interlace=0 / total-frames=158407 / level-idc=51 / high-tier=1 / uhd-bd=0 / ref=4 / no-allow-non-conformance / repeat-headers / annexb / no-aud / hrd / info / hash=0 / no-temporal-layers / no-open-gop / min-keyint=24 / keyint=240 / gop-lookahead=0 / bframes=8 / b-adapt=2 / b-pyramid / bframe-bias=0 / rc-lookahead=25 / lookahead-slices=0 / NTM4NzU=uuDQuD2mJt9fsCf / scenecut=40 / radl=0 / no-splice / no-intra-refresh / ctu=64 / min-cu-size=8 / no-rect / no-amp / max-tu-size=32 / tu-inter-depth=3 / tu-intra-depth=3 / limit-tu=4 / rdoq-level=2 / dynamic-rd=0.00 / no-ssim-rd / signhide / no-tskip / nr-intra=0 / nr-inter=0 / no-constrained-intra / no-strong-intra-smoothing / max-merge=4 / limit-refs=1 / limit-modes / me=3 / subme=4 / merange=25 / temporal-mvp / weightp / weightb / no-analyze-src-pics / deblock=-3:-3 / no-sao / no-sao-non-deblock / rd=6 / no-early-skip / rskip / no-fast-intra / no-tskip-fast / no-cu-lossless / b-intra / no-splitrd-skip / rdpenalty=0 / psy-rd=2.00 / psy-rdoq=1.00 / no-rd-refine / no-lossless / cbqpoffs=0 / crqpoffs=0 / rc=crf / crf=18.5 / qcomp=0.65 / qpstep=4 / stats-write=0 / stats-read=0 / vbv-maxrate=160000 / vbv-bufsize=160000 / vbv-init=0.9 / crf-max=0.0 / crf-min=0.0 / ipratio=1.30 / pbratio=1.20 / aq-mode=3 / aq-strength=0.85 / cutree / zone-count=0 / no-strict-cbr / qg-size=32 / no-rc-grain / qpmax=69 / qpmin=0 / no-const-vbv / sar=1 / overscan=0 / videoformat=5 / range=0 / colorprim=9 / transfer=16 / colormatrix=9 / chromaloc=1 / chromaloc-top=2 / chromaloc-bottom=2 / display-window=0 / master-display=G(13250,34500)B(7500,3000)R(34000,16000)WP(15635,16450)L(10000000,50) / max-cll=995,264 / min-luma=0 / max-luma=1023 / log2-max-poc-lsb=8 / vui-timing-info / vui-hrd-info / slices=1 / no-opt-qp-pps / no-opt-ref-list-length-pps / no-multi-pass-opt-rps / scenecut-bias=0.05 / no-opt-cu-delta-qp / no-aq-motion / hdr / hdr-opt / no-dhdr10-opt / no-idr-recovery-sei / analysis-reuse-level=5 / scale-factor=0 / refine-intra=0 / refine-inter=0 / refine-mv=0 / refine-ctu-distortion=0 / no-limit-sao / ctu-info=0 / no-lowpass-dct / refine-analysis-type=0 / copy-pic=1 / max-ausize-factor=1.0 / no-dynamic-refine / no-single-sei / no-hevc-aq / qp-adaptation-range=1.00
  36. Language                                 : English
  37. Default                                  : Yes
  38. Forced                                   : No
  39. Color range                              : Limited
  40. Color primaries                          : BT.2020
  41. Transfer characteristics                 : PQ
  42. Matrix coefficients                      : BT.2020 non-constant
  43. Mastering display color primaries        : Display P3
  44. Mastering display luminance              : min: 0.0050 cd/m2, max: 1000 cd/m2
  45. Maximum Content Light Level              : 995 cd/m2
  46. Maximum Frame-Average Light Level        : 264 cd/m2
  47. Audio #1
  48. ID                                       : 2
  49. Format                                   : MLP FBA 16-ch
  50. Format/Info                              : Meridian Lossless Packing FBA with 16-channel presentation
  51. Commercial name                          : Dolby TrueHD with Dolby Atmos
  52. Codec ID                                 : A_TRUEHD
  53. Duration                                 : 1 h 50 min
  54. Bit rate mode                            : Variable
  55. Bit rate                                 : 3 545 kb/s
  56. Maximum bit rate                         : 5 826 kb/s
  57. Channel(s)                               : 8 channels
  58. Channel layout                           : L R C LFE Ls Rs Lb Rb
  59. Sampling rate                            : 48.0 kHz
  60. Frame rate                               : 1 200.000 FPS (40 SPF)
  61. Compression mode                         : Lossless
  62. Stream size                              : 2.73 GiB (17%)
  63. Title                                    : English Dolby TrueHD 7.1 (Atmos) @ 3545 kbps
  64. Language                                 : English
  65. Default                                  : Yes
  66. Forced                                   : No
  67. Number of dynamic objects                : 11
  68. Bed channel count                        : 1 channel
  69. Bed channel configuration                : LFE
  70. Audio #2
  71. ID                                       : 3
  72. Format                                   : AC-3
  73. Format/Info                              : Audio Coding 3
  74. Commercial name                          : Dolby Digital
  75. Codec ID                                 : A_AC3
  76. Duration                                 : 1 h 50 min
  77. Bit rate mode                            : Constant
  78. Bit rate                                 : 448 kb/s
  79. Channel(s)                               : 6 channels
  80. Channel layout                           : L R C LFE Ls Rs
  81. Sampling rate                            : 48.0 kHz
  82. Frame rate                               : 31.250 FPS (1536 SPF)
  83. Compression mode                         : Lossy
  84. Stream size                              : 353 MiB (2%)
  85. Title                                    : English Dolby 5.1-EX @ 448 kbps
  86. Language                                 : English
  87. Service kind                             : Complete Main
  88. Default                                  : No
  89. Forced                                   : No
  90. Audio #3
  91. ID                                       : 4
  92. Format                                   : AC-3
  93. Format/Info                              : Audio Coding 3
  94. Commercial name                          : Dolby Digital
  95. Codec ID                                 : A_AC3
  96. Duration                                 : 1 h 50 min
  97. Bit rate mode                            : Constant
  98. Bit rate                                 : 192 kb/s
  99. Channel(s)                               : 2 channels
  100. Channel layout                           : L R
  101. Sampling rate                            : 48.0 kHz
  102. Frame rate                               : 31.250 FPS (1536 SPF)
  103. Compression mode                         : Lossy
  104. Stream size                              : 151 MiB (1%)
  105. Title                                    : English Dolby Digital Audio 2.0 @ 192 kbps  Commentary
  106. Language                                 : English
  107. Service kind                             : Complete Main
  108. Default                                  : No
  109. Forced                                   : No
  110. Text #1
  111. ID                                       : 5
  112. Format                                   : PGS
  113. Codec ID                                 : S_HDMV/PGS
  114. Codec ID/Info                            : Picture based subtitle format used on BDs/HD-DVDs
  115. Duration                                 : 1 h 49 min
  116. Bit rate                                 : 59.7 kb/s
  117. Count of elements                        : 4042
  118. Stream size                              : 46.6 MiB (0%)
  119. Title                                    : Eng/SUP
  120. Language                                 : English
  121. Default                                  : No
  122. Forced                                   : No
  123. Text #2
  124. ID                                       : 6
  125. Format                                   : PGS
  126. Codec ID                                 : S_HDMV/PGS
  127. Codec ID/Info                            : Picture based subtitle format used on BDs/HD-DVDs
  128. Duration                                 : 1 h 44 min
  129. Bit rate                                 : 21.1 kb/s
  130. Count of elements                        : 3482
  131. Stream size                              : 15.7 MiB (0%)
  132. Title                                    : Chs/SUP  简体
  133. Language                                 : Chinese
  134. Default                                  : No
  135. Forced                                   : No
  136. Text #3
  137. ID                                       : 7
  138. Format                                   : PGS
  139. Codec ID                                 : S_HDMV/PGS
  140. Codec ID/Info                            : Picture based subtitle format used on BDs/HD-DVDs
  141. Duration                                 : 1 h 44 min
  142. Bit rate                                 : 21.8 kb/s
  143. Count of elements                        : 3482
  144. Stream size                              : 16.3 MiB (0%)
  145. Title                                    : Cht/SUP  繁体
  146. Language                                 : Chinese
  147. Default                                  : Yes
  148. Forced                                   : No
  149. Menu
  150. 00:00:00.000                             : en:第 01 章
  151. 00:05:09.017                             : en:第 02 章
  152. 00:11:19.345                             : en:第 03 章
  153. 00:15:04.821                             : en:第 04 章
  154. 00:21:22.823                             : en:第 05 章
  155. 00:24:47.736                             : en:第 06 章
  156. 00:30:46.178                             : en:第 07 章
  157. 00:35:16.698                             : en:第 08 章
  158. 00:40:44.067                             : en:第 09 章
  159. 00:45:31.979                             : en:第 10 章
  160. 00:52:58.550                             : en:第 11 章
  161. 01:00:36.758                             : en:第 12 章
  162. 01:04:27.030                             : en:第 13 章
  163. 01:10:08.287                             : en:第 14 章
  164. 01:15:02.581                             : en:第 15 章
  165. 01:20:53.724                             : en:第 16 章
  166. 01:27:47.762                             : en:第 17 章
  167. 01:32:23.329                             : en:第 18 章
  168. 01:37:27.091                             : en:第 19 章
  169. 01:42:29.977                             : en:第 20 章
复制代码

















保举请利用qBittorrent,utorrent,transmission等标准BT软件下载!以获得最快速度。奉求保种!





回复

使用道具 举报

蓝光币
131
发表于 2022-7-30 09:41:40 | 显示全部楼层
谢谢LZ分享好片
回复 支持 反对

使用道具 举报

懒得打字嘛,点击右侧快捷回复 【右侧内容,后台自定义】
您需要登录后才可以回帖 登录 | 立即加入

本版积分规则

Archiver|小黑屋| 蓝光电影网 |网站地图

Copyright © 2021 Comsenz Inc. Powered by 蓝光电影网

蓝光电影网

本站内容由用户自主分享和转载自互联网,转载目的在于传递更多信息,并不代表本网赞同其观点和对其真实性负责。

如有侵权、违反国家法律政策行为,请联系我们,我们会第一时间及时清除和处理!

举报反馈邮箱:[email protected]

快速回复 返回顶部 返回列表