找回密码

蓝光电影网

查看: 248|回复: 5

[2160p] 驯龙高手2[国粤英多音轨/简繁英双语字幕].How.to.Train.Your.Dragon.2.2014.UHD.BluRay.2160p.MultiAudio.DTS-X.MA.7.1.x265.10bit.HDR-ALT 12.22GB

[复制链接]
蓝光币
8
发表于 2022-7-29 18:46:22 | 显示全部楼层 |阅读模式
驯龙高手2[国粤英多音轨/简繁英双语字幕].How.to.Train.Your.Dragon.2.2014.UHD.BluRay.2160p.MultiAudio.DTS-X.MA.7.1.x265.10bit.HDR-ALT 12.22GB-1.png

◎标  题 驯龙高手2
◎译  名 驯龙记2(港)
◎片  名 How to Train Your Dragon 2
◎年  代 2014
◎产  地 美国
◎类  别 动画 / 奇异 / 冒险
◎语  言 英语
◎上映日期 2014-08-14(中国大陆) / 2014-05-16(戛纳电影节) / 2014-06-13(美国)
◎IMDb评分 7.8/10 (319889人评价)
◎IMDb链接 https://www.imdb.com/title/tt1646971/
◎豆瓣评分 8.1/10 (263975人评价)
◎豆瓣链接 https://movie.douban.com/subject/4824512/
◎片  长 102分钟
◎导  演 迪恩·德布洛斯 Dean DeBlois
◎编  剧 迪恩·德布洛斯 Dean DeBlois
       葛蕾熙达·柯维尔 Cressida Cowell
◎演  员 杰伊·巴鲁切尔 Jay Baruchel
       凯特·布兰切特 Cate Blanchett
       杰拉德·巴特勒 Gerard Butler
       克雷格·费格森 Craig Ferguson
       亚美莉卡·费雷拉 America Ferrera
       乔纳·希尔 Jonah Hill
       克里斯托夫·梅兹-普莱瑟 Christopher Mintz-Plasse
       T·J·米勒 T.J. Miller
       克里斯汀·韦格 Kristen Wiig
       杰曼·翰苏 Djimon Hounsou
       基特·哈灵顿 Kit Harington
       基隆·埃利奥特 Kieron Elliott
       菲利普·麦格雷德 Philip McGrade
       安德鲁·埃布尔森 Andrew Ableson
       吉迪恩·埃默里 Gideon Emery
       西蒙·卡斯安德斯 Simon Kassianides
       兰迪·汤姆 Randy Thom
       艾米利亚·舒勒 Emilia Schüle
       蒋雯丽 Wenli Jiang
       林更新 Gengxin Lin
       白百何 Baihe Bai
       约翰·鲍威尔 John Powell
       约翰·K·凯尔 John K. Carr
       吉恩·吉尔平 Jean Gilpin
◎标  签 动画 / 梦工场 / 美国 / 冒险 / 奇异 / 2014 / 笑剧 / 长大
◎简  介
  年轻勇敢的维京勇士小嗝嗝 (杰伊·巴鲁切尔 Jay Baruchel 配音)驯服受伤的龙,更与它成为好友。经过五年时候,博克岛居民的生活完全渗透龙的气味。博克岛现已是个维京人与龙战争共存的天堂。                                       
                                    但是,长大却意味着义务。为了寻觅答案,小嗝嗝与虔诚的没牙仔起头了他们的冒险旅程,但成果却超乎预感。一方面,小嗝嗝发现奥秘的驯龙骑士,正是失落多年的亲母沃尔卡(凯特·布兰切特 Cate Blanchett 配音);另一方面,嗜权的德雷格(杰曼·翰苏 Djimon Hounsou 配音)与龙猎人埃雷特(基特·哈灵顿 Kit Harington 配音)缔盟,威胁到博克岛上人与龙的战争。                                       
                                    为了庇护深受大师爱好的龙,阿丝翠德(亚美莉卡·费雷拉 America Ferrera 配音)、高博(克雷格·费格森 Craig Ferguson 配音),维京伙伴们:鼻涕虫(乔纳·...
  1. ##### MediaInfo ######
  2. General
  3. Unique ID                                : 45548252984978100205364428351179113246 (0x224446414BA274C8078CBC8B65B0C31E)
  4. Complete name                            : How.to.Train.Your.Dragon.2.2014.UHD.BluRay.2160p.MultiAudio.DTS-X.MA.7.1.x265.10bit.HDR-ALT.mkv
  5. Format                                   : Matroska
  6. Format version                           : Version 4
  7. File size                                : 12.2 GiB
  8. Duration                                 : 1 h 41 min
  9. Overall bit rate mode                    : Variable
  10. Overall bit rate                         : 17.2 Mb/s
  11. Movie name                               : How.to.Train.Your.Dragon.2.2014.UHD.BluRay.REMUX.2160p.HEVC.DTS-X.7.1-HDS
  12. Encoded date                             : UTC 2019-12-29 23:06:20
  13. Writing application                      : mkvmerge v41.0.0 ('Smarra') 64-bit
  14. Writing library                          : libebml v1.3.9 + libmatroska v1.5.2
  15. Video
  16. ID                                       : 1
  17. Format                                   : HEVC
  18. Format/Info                              : High Efficiency Video Coding
  19. Format profile                           : Main [email protected]@High
  20. HDR format                               : SMPTE ST 2086, HDR10 compatible
  21. Codec ID                                 : V_MPEGH/ISO/HEVC
  22. Duration                                 : 1 h 41 min
  23. Bit rate                                 : 9 129 kb/s
  24. Width                                    : 3 840 pixels
  25. Height                                   : 1 630 pixels
  26. Display aspect ratio                     : 2.35:1
  27. Frame rate mode                          : Constant
  28. Frame rate                               : 23.976 (24000/1001/53875) FPS
  29. Color space                              : YUV
  30. Chroma subsampling                       : 4:2:0 (Type 2)
  31. Bit depth                                : 10 bits
  32. Bits/(Pixel*Frame)                       : 0.061
  33. Stream size                              : 6.50 GiB (53%)
  34. Title                                    : HEVC, [email protected]@High, 24/1.001 fps @ 9128 kbps
  35. Writing library                          : x265 3.0_Au+4-dcbec33bfb0f:[Windows][GCC 8.2.1][64 bit] 10bit
  36. Encoding settings                        : cpuid=538751111039 / frame-threads=4 / numa-pools=12,12 / wpp / pmode / pme / no-psnr / no-ssim / log-level=2 / input-csp=1 / input-res=3840x1630 / interlace=0 / total-frames=146604 / level-idc=51 / high-tier=1 / uhd-bd=0 / ref=4 / no-allow-non-conformance / repeat-headers / annexb / no-aud / hrd / info / hash=0 / no-temporal-layers / no-open-gop / min-keyint=24 / keyint=240 / gop-lookahead=0 / bframes=8 / b-adapt=2 / b-pyramid / bframe-bias=0 / rc-lookahead=25 / lookahead-slices=0 / NTM4NzU=uuDQuD2mJt9fsCf / scenecut=40 / radl=0 / no-splice / no-intra-refresh / ctu=64 / min-cu-size=8 / no-rect / no-amp / max-tu-size=32 / tu-inter-depth=3 / tu-intra-depth=3 / limit-tu=4 / rdoq-level=2 / dynamic-rd=0.00 / no-ssim-rd / signhide / no-tskip / nr-intra=0 / nr-inter=0 / no-constrained-intra / no-strong-intra-smoothing / max-merge=4 / limit-refs=1 / limit-modes / me=3 / subme=4 / merange=25 / temporal-mvp / weightp / weightb / no-analyze-src-pics / deblock=-3:-3 / no-sao / no-sao-non-deblock / rd=6 / no-early-skip / rskip / no-fast-intra / no-tskip-fast / no-cu-lossless / b-intra / no-splitrd-skip / rdpenalty=0 / psy-rd=2.00 / psy-rdoq=1.00 / no-rd-refine / no-lossless / cbqpoffs=0 / crqpoffs=0 / rc=crf / crf=17.0 / qcomp=0.65 / qpstep=4 / stats-write=0 / stats-read=0 / vbv-maxrate=160000 / vbv-bufsize=160000 / vbv-init=0.9 / crf-max=0.0 / crf-min=0.0 / ipratio=1.30 / pbratio=1.20 / aq-mode=3 / aq-strength=0.85 / cutree / zone-count=0 / no-strict-cbr / qg-size=32 / no-rc-grain / qpmax=69 / qpmin=0 / no-const-vbv / sar=1 / overscan=0 / videoformat=5 / range=0 / colorprim=9 / transfer=16 / colormatrix=9 / chromaloc=1 / chromaloc-top=2 / chromaloc-bottom=2 / display-window=0 / master-display=G(13250,34500)B(7500,3000)R(34000,16000)WP(15635,16450)L(10000000,50) / max-cll=922,239 / min-luma=0 / max-luma=1023 / log2-max-poc-lsb=8 / vui-timing-info / vui-hrd-info / slices=1 / no-opt-qp-pps / no-opt-ref-list-length-pps / no-multi-pass-opt-rps / scenecut-bias=0.05 / no-opt-cu-delta-qp / no-aq-motion / hdr / hdr-opt / no-dhdr10-opt / no-idr-recovery-sei / analysis-reuse-level=5 / scale-factor=0 / refine-intra=0 / refine-inter=0 / refine-mv=0 / refine-ctu-distortion=0 / no-limit-sao / ctu-info=0 / no-lowpass-dct / refine-analysis-type=0 / copy-pic=1 / max-ausize-factor=1.0 / no-dynamic-refine / no-single-sei / no-hevc-aq / qp-adaptation-range=1.00
  37. Language                                 : English
  38. Default                                  : Yes
  39. Forced                                   : No
  40. Color range                              : Limited
  41. Color primaries                          : BT.2020
  42. Transfer characteristics                 : PQ
  43. Matrix coefficients                      : BT.2020 non-constant
  44. Mastering display color primaries        : Display P3
  45. Mastering display luminance              : min: 0.0050 cd/m2, max: 1000 cd/m2
  46. Maximum Content Light Level              : 922 cd/m2
  47. Maximum Frame-Average Light Level        : 239 cd/m2
  48. Audio #1
  49. ID                                       : 2
  50. Format                                   : DTS XLL X
  51. Format/Info                              : Digital Theater Systems
  52. Commercial name                          : DTS-HD Master Audio
  53. Codec ID                                 : A_DTS
  54. Duration                                 : 1 h 41 min
  55. Bit rate mode                            : Variable
  56. Bit rate                                 : 6 553 kb/s
  57. Channel(s)                               : 8 channels
  58. Channel(s)_Original                      : Object Based
  59. ChannelLayout_Original                   : Object Based
  60. Sampling rate                            : 48.0 kHz
  61. Frame rate                               : 93.750 FPS (512 SPF)
  62. Bit depth                                : 24 bits
  63. Delay relative to video                  : 17 ms
  64. Stream size                              : 4.66 GiB (38%)
  65. Title                                    : English DTS:X Master Audio 7.1 @ 6552 kbps
  66. Language                                 : English
  67. Default                                  : Yes
  68. Forced                                   : No
  69. Audio #2
  70. ID                                       : 3
  71. Format                                   : AC-3
  72. Format/Info                              : Audio Coding 3
  73. Commercial name                          : Dolby Digital
  74. Codec ID                                 : A_AC3
  75. Duration                                 : 1 h 41 min
  76. Bit rate mode                            : Constant
  77. Bit rate                                 : 448 kb/s
  78. Channel(s)                               : 2 channels
  79. Channel layout                           : L R
  80. Sampling rate                            : 48.0 kHz
  81. Frame rate                               : 31.250 FPS (1536 SPF)
  82. Compression mode                         : Lossy
  83. Delay relative to video                  : 3 s 550 ms
  84. Stream size                              : 327 MiB (3%)
  85. Title                                    : Mandarin Dolby Digital Audio 2.0 @ 448 kbps  国语
  86. Language                                 : Chinese
  87. Service kind                             : Complete Main
  88. Default                                  : No
  89. Forced                                   : No
  90. Audio #3
  91. ID                                       : 4
  92. Format                                   : AC-3
  93. Format/Info                              : Audio Coding 3
  94. Commercial name                          : Dolby Digital
  95. Codec ID                                 : A_AC3
  96. Duration                                 : 1 h 41 min
  97. Bit rate mode                            : Constant
  98. Bit rate                                 : 448 kb/s
  99. Channel(s)                               : 6 channels
  100. Channel layout                           : L R C LFE Ls Rs
  101. Sampling rate                            : 48.0 kHz
  102. Frame rate                               : 31.250 FPS (1536 SPF)
  103. Compression mode                         : Lossy
  104. Delay relative to video                  : 3 s 550 ms
  105. Stream size                              : 327 MiB (3%)
  106. Title                                    : Mandarin Dolby Digital Audio 5.1 @ 448 kbps  台配国语
  107. Language                                 : Chinese
  108. Service kind                             : Complete Main
  109. Default                                  : No
  110. Forced                                   : No
  111. Audio #4
  112. ID                                       : 5
  113. Format                                   : AC-3
  114. Format/Info                              : Audio Coding 3
  115. Commercial name                          : Dolby Digital
  116. Codec ID                                 : A_AC3
  117. Duration                                 : 1 h 41 min
  118. Bit rate mode                            : Constant
  119. Bit rate                                 : 448 kb/s
  120. Channel(s)                               : 6 channels
  121. Channel layout                           : L R C LFE Ls Rs
  122. Sampling rate                            : 48.0 kHz
  123. Frame rate                               : 31.250 FPS (1536 SPF)
  124. Compression mode                         : Lossy
  125. Delay relative to video                  : 3 s 550 ms
  126. Stream size                              : 327 MiB (3%)
  127. Title                                    : Cantonese Dolby Digital Audio 5.1 @ 448 kbps  粤语
  128. Language                                 : Chinese
  129. Service kind                             : Complete Main
  130. Default                                  : No
  131. Forced                                   : No
  132. Text #1
  133. ID                                       : 6
  134. Format                                   : PGS
  135. Codec ID                                 : S_HDMV/PGS
  136. Codec ID/Info                            : Picture based subtitle format used on BDs/HD-DVDs
  137. Duration                                 : 1 h 40 min
  138. Bit rate                                 : 46.0 kb/s
  139. Count of elements                        : 3870
  140. Stream size                              : 33.1 MiB (0%)
  141. Title                                    : ENG
  142. Language                                 : English
  143. Default                                  : No
  144. Forced                                   : No
  145. Text #2
  146. ID                                       : 7
  147. Format                                   : PGS
  148. Codec ID                                 : S_HDMV/PGS
  149. Codec ID/Info                            : Picture based subtitle format used on BDs/HD-DVDs
  150. Duration                                 : 1 h 31 min
  151. Bit rate                                 : 19.8 kb/s
  152. Count of elements                        : 2610
  153. Stream size                              : 12.9 MiB (0%)
  154. Title                                    : Chs/SUP  简体
  155. Language                                 : Chinese
  156. Default                                  : No
  157. Forced                                   : No
  158. Text #3
  159. ID                                       : 8
  160. Format                                   : PGS
  161. Codec ID                                 : S_HDMV/PGS
  162. Codec ID/Info                            : Picture based subtitle format used on BDs/HD-DVDs
  163. Duration                                 : 1 h 31 min
  164. Bit rate                                 : 20.5 kb/s
  165. Count of elements                        : 2610
  166. Stream size                              : 13.4 MiB (0%)
  167. Title                                    : Cht/SUP  繁体
  168. Language                                 : Chinese
  169. Default                                  : No
  170. Forced                                   : No
  171. Text #4
  172. ID                                       : 9
  173. Format                                   : PGS
  174. Codec ID                                 : S_HDMV/PGS
  175. Codec ID/Info                            : Picture based subtitle format used on BDs/HD-DVDs
  176. Duration                                 : 1 h 31 min
  177. Bit rate                                 : 31.7 kb/s
  178. Count of elements                        : 2288
  179. Stream size                              : 20.6 MiB (0%)
  180. Title                                    : Chs/SUP  简英双语
  181. Language                                 : Chinese
  182. Default                                  : Yes
  183. Forced                                   : No
  184. Text #5
  185. ID                                       : 10
  186. Format                                   : PGS
  187. Codec ID                                 : S_HDMV/PGS
  188. Codec ID/Info                            : Picture based subtitle format used on BDs/HD-DVDs
  189. Duration                                 : 1 h 31 min
  190. Bit rate                                 : 32.2 kb/s
  191. Count of elements                        : 2288
  192. Stream size                              : 21.0 MiB (0%)
  193. Title                                    : Cht/SUP  繁英双语
  194. Language                                 : Chinese
  195. Default                                  : No
  196. Forced                                   : No
  197. Menu
  198. 00:00:00.000                             : :Chapter 01
  199. 00:03:31.920                             : :Chapter 02
  200. 00:05:24.615                             : :Chapter 03
  201. 00:07:49.927                             : :Chapter 04
  202. 00:10:19.952                             : :Chapter 05
  203. 00:13:20.257                             : :Chapter 06
  204. 00:17:02.980                             : :Chapter 07
  205. 00:20:05.621                             : :Chapter 08
  206. 00:23:47.175                             : :Chapter 09
  207. 00:27:18.386                             : :Chapter 10
  208. 00:29:25.388                             : :Chapter 11
  209. 00:33:45.857                             : :Chapter 12
  210. 00:37:09.393                             : :Chapter 13
  211. 00:39:10.890                             : :Chapter 14
  212. 00:41:03.085                             : :Chapter 15
  213. 00:45:07.913                             : :Chapter 16
  214. 00:47:20.546                             : :Chapter 17
  215. 00:51:55.445                             : :Chapter 18
  216. 00:54:39.651                             : :Chapter 19
  217. 00:56:19.918                             : :Chapter 20
  218. 01:00:37.091                             : :Chapter 21
  219. 01:04:32.702                             : :Chapter 22
  220. 01:06:38.869                             : :Chapter 23
  221. 01:09:48.058                             : :Chapter 24
  222. 01:14:05.023                             : :Chapter 25
  223. 01:18:39.047                             : :Chapter 26
  224. 01:21:11.074                             : :Chapter 27
  225. 01:22:58.974                             : :Chapter 28
  226. 01:24:33.985                             : :Chapter 29
  227. 01:28:08.574                             : :Chapter 30
  228. 01:31:07.420                             : :Chapter 31
  229. 01:32:25.915                             : :Chapter 32
复制代码


驯龙高手2[国粤英多音轨/简繁英双语字幕].How.to.Train.Your.Dragon.2.2014.UHD.BluRay.2160p.MultiAudio.DTS-X.MA.7.1.x265.10bit.HDR-ALT 12.22GB-2.png

驯龙高手2[国粤英多音轨/简繁英双语字幕].How.to.Train.Your.Dragon.2.2014.UHD.BluRay.2160p.MultiAudio.DTS-X.MA.7.1.x265.10bit.HDR-ALT 12.22GB-3.png

驯龙高手2[国粤英多音轨/简繁英双语字幕].How.to.Train.Your.Dragon.2.2014.UHD.BluRay.2160p.MultiAudio.DTS-X.MA.7.1.x265.10bit.HDR-ALT 12.22GB-4.png

驯龙高手2[国粤英多音轨/简繁英双语字幕].How.to.Train.Your.Dragon.2.2014.UHD.BluRay.2160p.MultiAudio.DTS-X.MA.7.1.x265.10bit.HDR-ALT 12.22GB-5.png

驯龙高手2[国粤英多音轨/简繁英双语字幕].How.to.Train.Your.Dragon.2.2014.UHD.BluRay.2160p.MultiAudio.DTS-X.MA.7.1.x265.10bit.HDR-ALT 12.22GB-6.png

驯龙高手2[国粤英多音轨/简繁英双语字幕].How.to.Train.Your.Dragon.2.2014.UHD.BluRay.2160p.MultiAudio.DTS-X.MA.7.1.x265.10bit.HDR-ALT 12.22GB-7.png




保举请利用qBittorrent,utorrent,transmission等标准BT软件下载!以获得最快速度。奉求保种!




回复

使用道具 举报

蓝光币
208
发表于 2022-7-29 20:36:46 | 显示全部楼层

楼主太厉害了!楼主,电影应该很好看我觉得蓝光电影网真是个好地方!
回复 支持 反对

使用道具 举报

蓝光币
207
发表于 2022-7-29 21:07:09 | 显示全部楼层
太棒了 很喜欢这个
回复 支持 反对

使用道具 举报

蓝光币
188
发表于 2022-7-30 09:13:20 | 显示全部楼层

感谢楼主的无私分享!要想蓝光电影网好 就靠你我他
回复 支持 反对

使用道具 举报

蓝光币
515
发表于 2022-7-30 18:46:33 | 显示全部楼层
感谢楼主的无私分享!要想蓝光电影网好 就靠你我他
回复 支持 反对

使用道具 举报

蓝光币
13
发表于 2022-10-19 17:48:28 | 显示全部楼层

楼主太厉害了!楼主,电影应该很好看我觉得蓝光电影网真是个好地方!
回复 支持 反对

使用道具 举报

懒得打字嘛,点击右侧快捷回复 【右侧内容,后台自定义】
您需要登录后才可以回帖 登录 | 立即加入

本版积分规则

Archiver|小黑屋| 蓝光电影网 |网站地图

Copyright © 2021 Comsenz Inc. Powered by 蓝光电影网

蓝光电影网

本站内容由用户自主分享和转载自互联网,转载目的在于传递更多信息,并不代表本网赞同其观点和对其真实性负责。

如有侵权、违反国家法律政策行为,请联系我们,我们会第一时间及时清除和处理!

举报反馈邮箱:[email protected]

快速回复 返回顶部 返回列表