找回密码

蓝光电影网

查看: 142|回复: 0

[剧情] 沉默[简繁英双语字幕].Silence.2016.BluRay.1080p.DTS-HD.MA5.1.x265.10bit-ALT 12.77GB

[复制链接]
蓝光币
8
发表于 2022-7-29 18:49:50 | 显示全部楼层 |阅读模式


◎标  题 沉默
◎译  名 沈默(台) / 沈黙
◎片  名 Silence
◎年  代 2016
◎产  地 美国 / 中国台湾 / 墨西哥
◎类  别 剧情 / 历史
◎语  言 英语 / 日语 / 拉丁语 / 葡萄牙语 / 粤语 / 荷兰语
◎上映日期 2016-11-29(梵蒂冈) / 2017-01-13(美国)
◎IMDb评分 7.2/10 (107215人评价)
◎IMDb链接 https://www.imdb.com/title/tt0490215/
◎豆瓣评分 7.7/10 (20800人评价)
◎豆瓣链接 https://movie.douban.com/subject/1884684/
◎片  长 161分钟
◎导  演 马丁·斯科塞斯 Martin Scorsese
◎编  剧 马丁·斯科塞斯 Martin Scorsese
       杰伊·考克斯 Jay Cocks
       远藤周作 Shusaku Endo
◎演  员 安德鲁·加菲尔德 Andrew Garfield
       亚当·德赖弗 Adam Driver
       连姆·尼森 Liam Neeson
       浅野忠信 Tadanobu Asano
       塞伦·希德 Ciarán Hinds
       尾形一成 Issei Ogata
       冢本晋也 Shinya Tsukamoto
       笈田吉 Yoshi Oida
       洼冢洋介 Yôsuke Kubozuka
       加濑亮 Ryo Kase
       小松菜奈 Nana Komatsu
       萨布 SABU
       石凉 Liang Shi
       片桐入 Hairi Katagiri
       伊佐山博子 Hiroko Isayama
       洞口依子 Yoriko Douguchi
       藤原季节 Kisetsu Fujiwara
       江藤汉 Kansai Eto
       菅田俊 Shun Sugata
       青木高尚 Munetaka Aoki
       渡边哲 Tetsu Watanabe
       中村贺津雄 Katsuo Nakamura
       黑泽明日香 Asuka Kurosawa
       本尼西奥·德尔·托罗 Benicio del Toro
       盖尔·加西亚·贝纳尔 Gael García Bernal
       真木仁 Jin Maki
       马丁·斯科塞斯 Martin Scorsese
       艾玛·特林格·科斯考夫 Emma Tillinger Koskoff
       罗德里戈·普列托 Rodrigo Prieto
       塞尔玛·斯昆梅克 Thelma Schoonmaker
       黄文英 Wen-Ying Huang
       巴勃罗·赫尔曼 Pablo Helman
◎标  签 宗教 / 美国 / 日本 / 信仰 / 历史 / 剧情 / 人性 / 2016
◎简  介
  《沉默》改编自著名日本作家远藤周作的同名小说。故事发生在德川幕府时代禁教令下长崎四周的小村子,一个葡萄牙耶稣会的教士偷渡到日本传教,并观察恩师因蒙受「穴吊」严刑而宣誓弃教一事,由于这事在那时欧洲人的眼中,不但是小我的挫折,同时也是全部欧洲信仰、思惟的羞辱和失利。在传教与寻访的进程中,信仰与叛逆、纯洁与背德、强权与低微、受难与恐惧、坚毅与哑忍、挣扎与超脱……一切的两难情境都面临了,强逼着他对基督的信仰停止更深层且更现实的思考,终极,他彷佛也走过一趟恩师的心路过程,具有自己对信仰的诠释与理论。
  1. ##### MediaInfo ######
  2. General
  3. Unique ID                                : 54816943497610583030910304946871427488 (0x293D5BFAB41E3ABAF4CD97CC19A561A0)
  4. Complete name                            : Silence.2016.BluRay.1080p.DTS-HD.MA5.1.x265.10bit-ALT.mkv
  5. Format                                   : Matroska
  6. Format version                           : Version 4
  7. File size                                : 12.8 GiB
  8. Duration                                 : 2 h 41 min
  9. Overall bit rate mode                    : Variable
  10. Overall bit rate                         : 11.3 Mb/s
  11. Encoded date                             : UTC 2022-03-05 07:00:52
  12. Writing application                      : mkvmerge v49.0.0 ('Sick Of Losing Soulmates') 64-bit
  13. Writing library                          : libebml v1.4.0 + libmatroska v1.6.1
  14. Video
  15. ID                                       : 1
  16. Format                                   : HEVC
  17. Format/Info                              : High Efficiency Video Coding
  18. Format profile                           : Main [email protected]@High
  19. Codec ID                                 : V_MPEGH/ISO/HEVC
  20. Duration                                 : 2 h 41 min
  21. Bit rate                                 : 8 197 kb/s
  22. Width                                    : 1 920 pixels
  23. Height                                   : 804 pixels
  24. Display aspect ratio                     : 2.40:1
  25. Frame rate mode                          : Constant
  26. Frame rate                               : 23.976 (24000/1001/53875) FPS
  27. Color space                              : YUV
  28. Chroma subsampling                       : 4:2:0
  29. Bit depth                                : 10 bits
  30. Bits/(Pixel*Frame)                       : 0.221
  31. Stream size                              : 9.23 GiB (72%)
  32. Title                                    : HEVC, [email protected]@High, 24/1.001 fps @ 8196 kbps
  33. Writing library                          : x265 3.4+14-gd419c7152:[Windows][GCC 10.2.0][64 bit] 10bit
  34. Encoding settings                        : cpuid=538751111039 / frame-threads=4 / numa-pools=16 / wpp / pmode / pme / no-psnr / no-ssim / log-level=2 / input-csp=1 / input-res=1920x804 / interlace=0 / total-frames=231836 / level-idc=51 / high-tier=1 / uhd-bd=0 / ref=5 / no-allow-non-conformance / no-repeat-headers / annexb / no-aud / no-hrd / info / hash=0 / no-temporal-layers / open-gop / min-keyint=24 / keyint=240 / gop-lookahead=0 / bframes=6 / b-adapt=2 / b-pyramid / bframe-bias=0 / rc-lookahead=40 / lookahead-slices=0 / NTM4NzU=uuDQuD2mJt9fsCf / scenecut=40 / hist-scenecut=0 / radl=0 / no-splice / no-intra-refresh / ctu=32 / min-cu-size=8 / no-rect / no-amp / max-tu-size=32 / tu-inter-depth=3 / tu-intra-depth=3 / limit-tu=4 / rdoq-level=2 / dynamic-rd=0.00 / no-ssim-rd / signhide / no-tskip / nr-intra=0 / nr-inter=0 / no-constrained-intra / no-strong-intra-smoothing / max-merge=4 / limit-refs=1 / limit-modes / me=3 / subme=4 / merange=25 / temporal-mvp / no-frame-dup / no-hme / weightp / weightb / no-analyze-src-pics / deblock=-3:-3 / no-sao / no-sao-non-deblock / rd=6 / selective-sao=0 / no-early-skip / rskip / no-fast-intra / no-tskip-fast / no-cu-lossless / b-intra / no-splitrd-skip / rdpenalty=0 / psy-rd=2.00 / psy-rdoq=1.00 / no-rd-refine / no-lossless / cbqpoffs=0 / crqpoffs=0 / rc=crf / crf=17.0 / qcomp=0.65 / qpstep=4 / stats-write=0 / stats-read=0 / vbv-maxrate=80000 / vbv-bufsize=80000 / vbv-init=0.9 / crf-max=0.0 / crf-min=0.0 / ipratio=1.40 / pbratio=1.30 / aq-mode=2 / aq-strength=0.85 / cutree / zone-count=0 / no-strict-cbr / qg-size=32 / no-rc-grain / qpmax=69 / qpmin=0 / no-const-vbv / sar=1 / overscan=0 / videoformat=5 / range=0 / colorprim=1 / transfer=1 / colormatrix=1 / chromaloc=0 / display-window=0 / cll=0,0 / min-luma=0 / max-luma=1023 / log2-max-poc-lsb=8 / vui-timing-info / vui-hrd-info / slices=1 / no-opt-qp-pps / no-opt-ref-list-length-pps / no-multi-pass-opt-rps / scenecut-bias=0.05 / hist-threshold=0.03 / no-opt-cu-delta-qp / no-aq-motion / no-hdr10 / no-hdr10-opt / no-dhdr10-opt / no-idr-recovery-sei / analysis-reuse-level=0 / analysis-save-reuse-level=0 / analysis-load-reuse-level=0 / scale-factor=0 / refine-intra=0 / refine-inter=0 / refine-mv=1 / refine-ctu-distortion=0 / no-limit-sao / ctu-info=0 / no-lowpass-dct / refine-analysis-type=0 / copy-pic=1 / max-ausize-factor=1.0 / no-dynamic-refine / no-single-sei / no-hevc-aq / no-svt / no-field / qp-adaptation-range=1.00 / no-scenecut-aware-qpconformance-window-offsets / right=0 / bottom=0 / NTM4NzU= / decoder-max-rate=0
  35. Language                                 : English
  36. Default                                  : Yes
  37. Forced                                   : No
  38. Color range                              : Limited
  39. Color primaries                          : BT.709
  40. Transfer characteristics                 : BT.709
  41. Matrix coefficients                      : BT.709
  42. Audio
  43. ID                                       : 2
  44. Format                                   : DTS XLL
  45. Format/Info                              : Digital Theater Systems
  46. Commercial name                          : DTS-HD Master Audio
  47. Codec ID                                 : A_DTS
  48. Duration                                 : 2 h 41 min
  49. Bit rate mode                            : Variable
  50. Bit rate                                 : 2 970 kb/s
  51. Channel(s)                               : 6 channels
  52. Channel layout                           : C L R Ls Rs LFE
  53. Sampling rate                            : 48.0 kHz
  54. Frame rate                               : 93.750 FPS (512 SPF)
  55. Bit depth                                : 24 bits
  56. Compression mode                         : Lossless
  57. Stream size                              : 3.34 GiB (26%)
  58. Title                                    : English DTS-HD Master Audio 5.1 @ 2970 kbps
  59. Language                                 : English
  60. Default                                  : Yes
  61. Forced                                   : No
  62. Text #1
  63. ID                                       : 3
  64. Format                                   : PGS
  65. Codec ID                                 : S_HDMV/PGS
  66. Codec ID/Info                            : Picture based subtitle format used on BDs/HD-DVDs
  67. Duration                                 : 2 h 31 min
  68. Bit rate                                 : 22.6 kb/s
  69. Count of elements                        : 2960
  70. Stream size                              : 24.5 MiB (0%)
  71. Title                                    : Eng/SUP
  72. Language                                 : English
  73. Default                                  : No
  74. Forced                                   : No
  75. Text #2
  76. ID                                       : 4
  77. Format                                   : PGS
  78. Codec ID                                 : S_HDMV/PGS
  79. Codec ID/Info                            : Picture based subtitle format used on BDs/HD-DVDs
  80. Duration                                 : 2 h 33 min
  81. Bit rate                                 : 27.4 kb/s
  82. Count of elements                        : 3574
  83. Stream size                              : 30.1 MiB (0%)
  84. Title                                    : Eng/SUP  SDH
  85. Language                                 : English
  86. Default                                  : No
  87. Forced                                   : No
  88. Text #3
  89. ID                                       : 5
  90. Format                                   : PGS
  91. Codec ID                                 : S_HDMV/PGS
  92. Codec ID/Info                            : Picture based subtitle format used on BDs/HD-DVDs
  93. Duration                                 : 2 h 31 min
  94. Bit rate                                 : 25.7 kb/s
  95. Count of elements                        : 2871
  96. Stream size                              : 27.8 MiB (0%)
  97. Title                                    : Chs/SUP  简体
  98. Language                                 : Chinese
  99. Default                                  : Yes
  100. Forced                                   : No
  101. Text #4
  102. ID                                       : 6
  103. Format                                   : PGS
  104. Codec ID                                 : S_HDMV/PGS
  105. Codec ID/Info                            : Picture based subtitle format used on BDs/HD-DVDs
  106. Duration                                 : 2 h 31 min
  107. Bit rate                                 : 26.2 kb/s
  108. Count of elements                        : 2871
  109. Stream size                              : 28.3 MiB (0%)
  110. Title                                    : Cht/SUP  繁体
  111. Language                                 : Chinese
  112. Default                                  : No
  113. Forced                                   : No
  114. Text #5
  115. ID                                       : 7
  116. Format                                   : PGS
  117. Codec ID                                 : S_HDMV/PGS
  118. Codec ID/Info                            : Picture based subtitle format used on BDs/HD-DVDs
  119. Duration                                 : 2 h 31 min
  120. Bit rate                                 : 41.5 kb/s
  121. Count of elements                        : 2871
  122. Stream size                              : 44.9 MiB (0%)
  123. Title                                    : Chs/SUP  简英双语
  124. Language                                 : Chinese
  125. Default                                  : No
  126. Forced                                   : No
  127. Text #6
  128. ID                                       : 8
  129. Format                                   : PGS
  130. Codec ID                                 : S_HDMV/PGS
  131. Codec ID/Info                            : Picture based subtitle format used on BDs/HD-DVDs
  132. Duration                                 : 2 h 31 min
  133. Bit rate                                 : 42.0 kb/s
  134. Count of elements                        : 2871
  135. Stream size                              : 45.5 MiB (0%)
  136. Title                                    : Cht/SUP  繁英双语
  137. Language                                 : Chinese
  138. Default                                  : No
  139. Forced                                   : No
  140. Menu
  141. 00:00:00.000                             : en:第 01 章
  142. 00:12:59.904                             : en:第 02 章
  143. 00:22:15.793                             : en:第 03 章
  144. 00:33:21.708                             : en:第 04 章
  145. 00:41:58.975                             : en:第 05 章
  146. 00:51:14.029                             : en:第 06 章
  147. 01:03:15.291                             : en:第 07 章
  148. 01:10:57.128                             : en:第 08 章
  149. 01:22:59.099                             : en:第 09 章
  150. 01:30:19.914                             : en:第 10 章
  151. 01:41:49.645                             : en:第 11 章
  152. 01:47:57.012                             : en:第 12 章
  153. 01:54:46.546                             : en:第 13 章
  154. 02:10:37.163                             : en:第 14 章
  155. 02:19:11.051                             : en:第 15 章
  156. 02:34:22.378                             : en:第 16 章
复制代码

















保举请利用qBittorrent,utorrent,transmission等标准BT软件下载!以获得最快速度。奉求保种!





回复

使用道具 举报

懒得打字嘛,点击右侧快捷回复 【右侧内容,后台自定义】
您需要登录后才可以回帖 登录 | 立即加入

本版积分规则

Archiver|小黑屋| 蓝光电影网 |网站地图

Copyright © 2021 Comsenz Inc. Powered by 蓝光电影网

蓝光电影网

本站内容由用户自主分享和转载自互联网,转载目的在于传递更多信息,并不代表本网赞同其观点和对其真实性负责。

如有侵权、违反国家法律政策行为,请联系我们,我们会第一时间及时清除和处理!

举报反馈邮箱:[email protected]

快速回复 返回顶部 返回列表