找回密码

蓝光电影网

查看: 46|回复: 0

[剧情] 爱情万岁[国语配音/中文字幕].Vive.L'Amour.1994.USA.BluRay.1080p.HEVC.10bit.MiniFHD-MOMOHD 8.22GB

[复制链接]
蓝光币
7
发表于 2022-7-29 18:50:25 | 显示全部楼层 |阅读模式


◎标  题 恋爱万岁
◎译  名 Vive L'Amour
◎片  名 愛情萬歲
◎年  代 1994
◎产  地 中国台湾
◎类  别 剧情 / 同性
◎语  言 汉语普通话
◎上映日期 1994-09-02(中国台湾) / 1994-09-03(威尼斯电影节)
◎IMDb评分 7.4/10 (4047人评价)
◎IMDb链接 https://www.imdb.com/title/tt0109066/
◎豆瓣评分 7.9/10 (31071人评价)
◎豆瓣链接 https://movie.douban.com/subject/1296370/
◎片  长 118分钟
◎导  演 蔡明亮 Ming-liang Tsai
◎编  剧 蔡明亮 Ming-liang Tsai
       杨璧莹 Pi-ying Yang
       蔡逸君 Yi-chun Tsai
◎演  员 杨贵媚 Kuei-Mei Yang
       李康生 Kang-sheng Lee
       陈昭荣 Aaron Chen
       陆弈静 Yi-Ching Lu
       江奉琪 Feng-Chyt Jiang
       徐立功 Li-Kong Hsu
       张品虎 Hu-pin Chung
       宗华伟 Wei-hua Tzon
       廖本榕 Pen-jung Liao
       林铭国 Ming-Kuo Lin
       李宝琳 Pao-Lin Lee
       蔡逸君 Yi-chun Tsai
       胡定一 Ding-Yi Hu
       杨静安 Ching-Ang Yang
◎简  介
  骨灰盒倾销员小康(李康生)竣事心力交瘁的一往后,静静潜入一幢公寓里的一间房,没想这间房里,还会潜入一个会是其愿望(投射)工具的地摊小贩(陈昭荣)。屋子的临时仆人是一个售楼蜜斯(杨贵媚),她和小康性向虽然有异,却一样是没有恋爱(感情)暖和心灵的人。                                    
                                小康和地摊小贩一路头不时提防(售楼蜜斯和相互),待他们熟悉领会到各自的生活后,提防心理消除,却也没有自此成为朋友(懦弱的小康也鼓不起勇气示爱)。售楼蜜斯和地摊小贩发生过几次性关系,清楚地大白相互都是为了满足身材的久长饥渴,恋爱(豪情)并没有什么万岁之处,身材上的快感可以临时满足,精神上的抚慰却没法获得(即使有,也是长久如烟花)。
  1. ##### MediaInfo ######
  2. General
  3. Unique ID                                : 158463695099281783042756087786058196744 (0x7736FF5F5EF81D6ABEA8E5D075CAA708)
  4. Complete name                            : 恋爱万岁.Vive.L'Amour.1994.USA.BluRay.1080p.HEVC.10bit.MiniFHD-MOMOHD.mkv
  5. Format                                   : Matroska
  6. Format version                           : Version 2
  7. File size                                : 8.21 GiB
  8. Duration                                 : 1 h 58 min
  9. Overall bit rate                         : 9 964 kb/s
  10. Encoded date                             : UTC 2022-07-13 00:36:45
  11. Writing application                      : mkvmerge v42.0.0 ('Overtime') 64-bit
  12. Writing library                          : libebml v1.3.10 + libmatroska v1.5.2
  13. Video
  14. ID                                       : 1
  15. Format                                   : HEVC
  16. Format/Info                              : High Efficiency Video Coding
  17. Format profile                           : Main [email protected]@Main
  18. Codec ID                                 : V_MPEGH/ISO/HEVC
  19. Duration                                 : 1 h 58 min
  20. Bit rate                                 : 9 513 kb/s
  21. Width                                    : 1 920 pixels
  22. Height                                   : 1 080 pixels
  23. Display aspect ratio                     : 16:9
  24. Frame rate mode                          : Constant
  25. Frame rate                               : 23.976 (24000/1001/53875) FPS
  26. Color space                              : YUV
  27. Chroma subsampling                       : 4:2:0
  28. Bit depth                                : 10 bits
  29. Bits/(Pixel*Frame)                       : 0.191
  30. Stream size                              : 7.84 GiB (95%)
  31. Writing library                          : x265 3.4+2-73ca1d7be377:[Windows][GCC 6.3.0][64 bit] 10bit
  32. Encoding settings                        : cpuid=538751111039 / frame-threads=3 / numa-pools=8 / wpp / no-pmode / no-pme / no-psnr / no-ssim / log-level=2 / input-csp=1 / input-res=1920x1080 / interlace=0 / total-frames=169787 / level-idc=0 / high-tier=1 / uhd-bd=0 / ref=3 / no-allow-non-conformance / no-repeat-headers / annexb / no-aud / no-hrd / info / hash=0 / no-temporal-layers / no-open-gop / min-keyint=23 / keyint=250 / gop-lookahead=0 / bframes=4 / b-adapt=2 / b-pyramid / bframe-bias=0 / rc-lookahead=20 / lookahead-slices=6 / NTM4NzU=uuDQuD2mJt9fsCf / scenecut=40 / hist-scenecut=0 / radl=0 / no-splice / no-intra-refresh / ctu=64 / min-cu-size=8 / no-rect / no-amp / max-tu-size=32 / tu-inter-depth=1 / tu-intra-depth=1 / limit-tu=0 / rdoq-level=0 / dynamic-rd=0.00 / no-ssim-rd / signhide / no-tskip / nr-intra=0 / nr-inter=0 / no-constrained-intra / no-strong-intra-smoothing / max-merge=3 / limit-refs=1 / no-limit-modes / me=1 / subme=2 / merange=57 / temporal-mvp / no-frame-dup / no-hme / weightp / no-weightb / no-analyze-src-pics / deblock=0:0 / no-sao / no-sao-non-deblock / rd=3 / selective-sao=0 / early-skip / rskip / no-fast-intra / no-tskip-fast / no-cu-lossless / b-intra / no-splitrd-skip / rdpenalty=0 / psy-rd=2.00 / psy-rdoq=0.00 / no-rd-refine / no-lossless / cbqpoffs=0 / crqpoffs=0 / rc=crf / crf=22.5 / qcomp=0.80 / qpstep=4 / stats-write=0 / stats-read=0 / ipratio=1.40 / pbratio=1.30 / aq-mode=2 / aq-strength=1.00 / cutree / zone-count=0 / no-strict-cbr / qg-size=32 / no-rc-grain / qpmax=69 / qpmin=0 / no-const-vbv / sar=1 / overscan=0 / videoformat=5 / range=0 / colorprim=1 / transfer=1 / colormatrix=1 / chromaloc=0 / display-window=0 / cll=0,0 / min-luma=0 / max-luma=1023 / log2-max-poc-lsb=8 / vui-timing-info / vui-hrd-info / slices=1 / no-opt-qp-pps / no-opt-ref-list-length-pps / no-multi-pass-opt-rps / scenecut-bias=0.05 / hist-threshold=0.01 / no-opt-cu-delta-qp / no-aq-motion / no-hdr10 / no-hdr10-opt / no-dhdr10-opt / no-idr-recovery-sei / analysis-reuse-level=0 / analysis-save-reuse-level=0 / analysis-load-reuse-level=0 / scale-factor=0 / refine-intra=0 / refine-inter=0 / refine-mv=1 / refine-ctu-distortion=0 / no-limit-sao / ctu-info=0 / no-lowpass-dct / refine-analysis-type=0 / copy-pic=1 / max-ausize-factor=1.0 / no-dynamic-refine / no-single-sei / no-hevc-aq / no-svt / no-field / qp-adaptation-range=1.00 / no-scenecut-aware-qpconformance-window-offsets / right=0 / bottom=0 / NTM4NzU= / decoder-max-rate=0
  33. Default                                  : Yes
  34. Forced                                   : No
  35. Color range                              : Limited
  36. Color primaries                          : BT.709
  37. Transfer characteristics                 : BT.709
  38. Matrix coefficients                      : BT.709
  39. Audio
  40. ID                                       : 2
  41. Format                                   : AC-3
  42. Format/Info                              : Audio Coding 3
  43. Commercial name                          : Dolby Digital
  44. Codec ID                                 : A_AC3
  45. Duration                                 : 1 h 57 min
  46. Bit rate mode                            : Constant
  47. Bit rate                                 : 448 kb/s
  48. Channel(s)                               : 2 channels
  49. Channel layout                           : L R
  50. Sampling rate                            : 48.0 kHz
  51. Frame rate                               : 31.250 FPS (1536 SPF)
  52. Compression mode                         : Lossy
  53. Stream size                              : 378 MiB (4%)
  54. Language                                 : Chinese
  55. Service kind                             : Complete Main
  56. Default                                  : Yes
  57. Forced                                   : No
  58. Text #1
  59. ID                                       : 3
  60. Format                                   : UTF-8
  61. Codec ID                                 : S_TEXT/UTF8
  62. Codec ID/Info                            : UTF-8 Plain Text
  63. Duration                                 : 1 h 31 min
  64. Bit rate                                 : 7 b/s
  65. Count of elements                        : 275
  66. Stream size                              : 4.77 KiB (0%)
  67. Language                                 : Chinese
  68. Default                                  : Yes
  69. Forced                                   : No
  70. Text #2
  71. ID                                       : 4
  72. Format                                   : UTF-8
  73. Codec ID                                 : S_TEXT/UTF8
  74. Codec ID/Info                            : UTF-8 Plain Text
  75. Duration                                 : 1 h 31 min
  76. Bit rate                                 : 7 b/s
  77. Count of elements                        : 275
  78. Stream size                              : 4.77 KiB (0%)
  79. Language                                 : Chinese
  80. Default                                  : No
  81. Forced                                   : No
  82. Text #3
  83. ID                                       : 5
  84. Format                                   : PGS
  85. Muxing mode                              : zlib
  86. Codec ID                                 : S_HDMV/PGS
  87. Codec ID/Info                            : Picture based subtitle format used on BDs/HD-DVDs
  88. Duration                                 : 1 h 31 min
  89. Bit rate                                 : 6 314 b/s
  90. Count of elements                        : 458
  91. Stream size                              : 4.12 MiB (0%)
  92. Language                                 : English
  93. Default                                  : No
  94. Forced                                   : No
复制代码

















保举请利用qBittorrent,utorrent,transmission等标准BT软件下载!以获得最快速度。奉求保种!





[url=https://www.4k1080.com/data/attachment/forum/恋爱万岁[国语配音 中笔墨幕].Vive.L'Amour.1994.USA.BluRay.1080p.HEVC.10bit.M.torrent]恋爱万岁[国语配音/中笔墨幕].Vive.L'Amour.1994.USA.BluRay.1080p.HEVC.10bit.MiniFHD-MOMOHD 8.22GB[/url]
回复

使用道具 举报

懒得打字嘛,点击右侧快捷回复 【右侧内容,后台自定义】
您需要登录后才可以回帖 登录 | 立即加入

本版积分规则

Archiver|小黑屋| 蓝光电影网 |网站地图

Copyright © 2021 Comsenz Inc. Powered by 蓝光电影网

蓝光电影网

本站内容由用户自主分享和转载自互联网,转载目的在于传递更多信息,并不代表本网赞同其观点和对其真实性负责。

如有侵权、违反国家法律政策行为,请联系我们,我们会第一时间及时清除和处理!

举报反馈邮箱:[email protected]

快速回复 返回顶部 返回列表