找回密码

蓝光电影网

查看: 147|回复: 0

[剧情] 终极标靶[中文字幕].Hard.Target.1993.USA.BluRay.1080p.HEVC.10bit.MiniFHD-MOMOHD 6.80GB

[复制链接]
蓝光币
8
发表于 2022-7-29 18:50:32 | 显示全部楼层 |阅读模式


◎标  题 终极标靶
◎片  名 Hard Target
◎年  代 1993
◎产  地 美国
◎类  别 行动 / 惊悚 / 犯罪
◎语  言 英语 / 法语
◎上映日期 1993-11-04(美国)
◎IMDb评分 6.2/10 (48984人评价)
◎IMDb链接 https://www.imdb.com/title/tt0107076/
◎豆瓣评分 6.6/10 (4102人评价)
◎豆瓣链接 https://movie.douban.com/subject/1295871/
◎片  长 97分钟
◎导  演 吴宇森 John Woo
◎编  剧 查克·费尔 Chuck Pfarrer
◎演  员 尚格·云顿 Jean-Claude Van Damme
       查克·费尔 Chuck Pfarrer
       阿诺德·沃斯洛 Arnold Vosloo
       兰斯·亨利克森 Lance Henriksen
       杨茜·巴特勒 Yancy Butler
       威利·C·卡彭特 Willie C. Carpenter
       卡斯·莱蒙斯 Kasi Lemmons
       埃利奥特·基纳 Eliott Keener
       马科·圣约翰 Marco St. John
       泰德·雷米 Ted Raimi
       史文-欧尔·托尔森 Sven-Ole Thorsen
       朱尔斯·西尔维斯特 Jules Sylvester
       威尔福德·布利姆雷 Wilford Brimley
       Robert Pavlovich Robert Pavlovich
       Joe Warfield Joe Warfield
◎标  签 行动 / 吴宇森 / 尚格·云顿 / 美国 / 美国电影 / 1993 / 暴力 / 犯罪
◎简  介
    娜塔莎(杨茜•巴特勒 Yancy Butler 饰)年轻富有,此次专门来到新奥尔良市寻觅自己失散多年的退伍的父亲。但是她刚踏入这个城市就遭到了抢劫,失业船员赞斯(尚格•云顿 Jean-Claude Van Damme 饰)见义勇为帮她打走了强盗。娜塔莎见赞斯富有正义感,就聘请他为自己寻觅父亲,为存够钱重新出海的赞斯怅然答应。                                                                      未几,警方找到了被火烧焦了的娜塔莎的父亲。直觉灵敏的赞斯感觉工作不简单,他在现场仔细搜寻,终究发现了被箭射穿的娜塔莎父亲的兵士牌,从而肯定了娜塔莎父亲是被人射杀的。赞斯和娜塔莎经过观察,发现了新奥尔良市有一伙大盗,他们专门找一些无依靠的退伍甲士,然后让富人们像猎杀动物一样猎杀他们。赞斯和娜塔莎决心要将这伙刻毒的大盗乘之于法!
  1. ##### MediaInfo ######
  2. General
  3. Unique ID                                : 229480810731573636093152990493455836951 (0xACA465815A5C7CB9FF353FEE4A466717)
  4. Complete name                            : 终极标靶.Hard.Target.1993.USA.BluRay.1080p.HEVC.10bit.MiniFHD-MOMOHD.mkv
  5. Format                                   : Matroska
  6. Format version                           : Version 2
  7. File size                                : 6.80 GiB
  8. Duration                                 : 1 h 39 min
  9. Overall bit rate                         : 9 765 kb/s
  10. Encoded date                             : UTC 2022-07-07 22:41:34
  11. Writing application                      : mkvmerge v42.0.0 ('Overtime') 64-bit
  12. Writing library                          : libebml v1.3.10 + libmatroska v1.5.2
  13. Video
  14. ID                                       : 1
  15. Format                                   : HEVC
  16. Format/Info                              : High Efficiency Video Coding
  17. Format profile                           : Main [email protected]@Main
  18. Codec ID                                 : V_MPEGH/ISO/HEVC
  19. Duration                                 : 1 h 39 min
  20. Bit rate                                 : 9 111 kb/s
  21. Width                                    : 1 920 pixels
  22. Height                                   : 1 036 pixels
  23. Display aspect ratio                     : 1.85:1
  24. Frame rate mode                          : Constant
  25. Frame rate                               : 23.976 (24000/1001/53875) FPS
  26. Color space                              : YUV
  27. Chroma subsampling                       : 4:2:0
  28. Bit depth                                : 10 bits
  29. Bits/(Pixel*Frame)                       : 0.191
  30. Stream size                              : 6.35 GiB (93%)
  31. Writing library                          : x265 3.4+2-73ca1d7be377:[Windows][GCC 6.3.0][64 bit] 10bit
  32. Encoding settings                        : cpuid=538751111039 / frame-threads=3 / numa-pools=8 / wpp / no-pmode / no-pme / no-psnr / no-ssim / log-level=2 / input-csp=1 / input-res=1920x1036 / interlace=0 / total-frames=143495 / level-idc=0 / high-tier=1 / uhd-bd=0 / ref=3 / no-allow-non-conformance / no-repeat-headers / annexb / no-aud / no-hrd / info / hash=0 / no-temporal-layers / no-open-gop / min-keyint=23 / keyint=250 / gop-lookahead=0 / bframes=4 / b-adapt=2 / b-pyramid / bframe-bias=0 / rc-lookahead=20 / lookahead-slices=6 / NTM4NzU=uuDQuD2mJt9fsCf / scenecut=40 / hist-scenecut=0 / radl=0 / no-splice / no-intra-refresh / ctu=64 / min-cu-size=8 / no-rect / no-amp / max-tu-size=32 / tu-inter-depth=1 / tu-intra-depth=1 / limit-tu=0 / rdoq-level=0 / dynamic-rd=0.00 / no-ssim-rd / signhide / no-tskip / nr-intra=0 / nr-inter=0 / no-constrained-intra / no-strong-intra-smoothing / max-merge=3 / limit-refs=1 / no-limit-modes / me=1 / subme=2 / merange=57 / temporal-mvp / no-frame-dup / no-hme / weightp / no-weightb / no-analyze-src-pics / deblock=0:0 / no-sao / no-sao-non-deblock / rd=3 / selective-sao=0 / early-skip / rskip / no-fast-intra / no-tskip-fast / no-cu-lossless / b-intra / no-splitrd-skip / rdpenalty=0 / psy-rd=2.00 / psy-rdoq=0.00 / no-rd-refine / no-lossless / cbqpoffs=0 / crqpoffs=0 / rc=crf / crf=23.0 / qcomp=0.80 / qpstep=4 / stats-write=0 / stats-read=0 / ipratio=1.40 / pbratio=1.30 / aq-mode=2 / aq-strength=1.00 / cutree / zone-count=0 / no-strict-cbr / qg-size=32 / no-rc-grain / qpmax=69 / qpmin=0 / no-const-vbv / sar=1 / overscan=0 / videoformat=5 / range=0 / colorprim=2 / transfer=2 / colormatrix=2 / chromaloc=0 / display-window=0 / cll=0,0 / min-luma=0 / max-luma=1023 / log2-max-poc-lsb=8 / vui-timing-info / vui-hrd-info / slices=1 / no-opt-qp-pps / no-opt-ref-list-length-pps / no-multi-pass-opt-rps / scenecut-bias=0.05 / hist-threshold=0.01 / no-opt-cu-delta-qp / no-aq-motion / no-hdr10 / no-hdr10-opt / no-dhdr10-opt / no-idr-recovery-sei / analysis-reuse-level=0 / analysis-save-reuse-level=0 / analysis-load-reuse-level=0 / scale-factor=0 / refine-intra=0 / refine-inter=0 / refine-mv=1 / refine-ctu-distortion=0 / no-limit-sao / ctu-info=0 / no-lowpass-dct / refine-analysis-type=0 / copy-pic=1 / max-ausize-factor=1.0 / no-dynamic-refine / no-single-sei / no-hevc-aq / no-svt / no-field / qp-adaptation-range=1.00 / no-scenecut-aware-qpconformance-window-offsets / right=0 / bottom=0 / NTM4NzU= / decoder-max-rate=0
  33. Default                                  : Yes
  34. Forced                                   : No
  35. Audio
  36. ID                                       : 2
  37. Format                                   : AC-3
  38. Format/Info                              : Audio Coding 3
  39. Commercial name                          : Dolby Digital
  40. Codec ID                                 : A_AC3
  41. Duration                                 : 1 h 39 min
  42. Bit rate mode                            : Constant
  43. Bit rate                                 : 640 kb/s
  44. Channel(s)                               : 6 channels
  45. Channel layout                           : L R C LFE Ls Rs
  46. Sampling rate                            : 48.0 kHz
  47. Frame rate                               : 31.250 FPS (1536 SPF)
  48. Compression mode                         : Lossy
  49. Stream size                              : 457 MiB (7%)
  50. Language                                 : English
  51. Service kind                             : Complete Main
  52. Default                                  : Yes
  53. Forced                                   : No
  54. Text #1
  55. ID                                       : 3
  56. Format                                   : UTF-8
  57. Codec ID                                 : S_TEXT/UTF8
  58. Codec ID/Info                            : UTF-8 Plain Text
  59. Duration                                 : 1 h 34 min
  60. Bit rate                                 : 23 b/s
  61. Count of elements                        : 706
  62. Stream size                              : 16.3 KiB (0%)
  63. Language                                 : Chinese
  64. Default                                  : Yes
  65. Forced                                   : No
  66. Text #2
  67. ID                                       : 4
  68. Format                                   : UTF-8
  69. Codec ID                                 : S_TEXT/UTF8
  70. Codec ID/Info                            : UTF-8 Plain Text
  71. Duration                                 : 1 h 34 min
  72. Bit rate                                 : 23 b/s
  73. Count of elements                        : 706
  74. Stream size                              : 16.3 KiB (0%)
  75. Language                                 : Chinese
  76. Default                                  : No
  77. Forced                                   : No
  78. Text #3
  79. ID                                       : 5
  80. Format                                   : PGS
  81. Muxing mode                              : zlib
  82. Codec ID                                 : S_HDMV/PGS
  83. Codec ID/Info                            : Picture based subtitle format used on BDs/HD-DVDs
  84. Duration                                 : 1 h 37 min
  85. Bit rate                                 : 24.6 kb/s
  86. Count of elements                        : 2088
  87. Stream size                              : 17.2 MiB (0%)
  88. Language                                 : English
  89. Default                                  : No
  90. Forced                                   : No
复制代码

















保举请利用qBittorrent,utorrent,transmission等标准BT软件下载!以获得最快速度。奉求保种!





回复

使用道具 举报

懒得打字嘛,点击右侧快捷回复 【右侧内容,后台自定义】
您需要登录后才可以回帖 登录 | 立即加入

本版积分规则

Archiver|小黑屋| 蓝光电影网 |网站地图

Copyright © 2021 Comsenz Inc. Powered by 蓝光电影网

蓝光电影网

本站内容由用户自主分享和转载自互联网,转载目的在于传递更多信息,并不代表本网赞同其观点和对其真实性负责。

如有侵权、违反国家法律政策行为,请联系我们,我们会第一时间及时清除和处理!

举报反馈邮箱:[email protected]

快速回复 返回顶部 返回列表