找回密码

蓝光电影网

查看: 115|回复: 1

[剧情] 星际旅行10:复仇女神[简繁英字幕].Star.Trek.Nemesis.2002.1080p.BluRay.DD.5.1.x265-10bit-TAGHD 9.88GB

[复制链接]
蓝光币
8
发表于 2022-7-29 18:51:05 | 显示全部楼层 |阅读模式


◎标  题 星际观光10:复仇女神
◎译  名 星际迷航10:克星 / 星空奇遇记:星战启迪录(港) / 星舰奇航记10:星战启迪录(台) / 星际争霸战10 / 星舰迷航记10 / Star Trek 10
◎片  名 Star Trek: Nemesis
◎年  代 2002
◎产  地 美国
◎类  别 行动 / 科幻 / 惊悚 / 冒险
◎语  言 英语
◎上映日期 2002-12-13
◎IMDb评分 6.4/10 (78516人评价)
◎IMDb链接 https://www.imdb.com/title/tt0253754/
◎豆瓣评分 7.0/10 (7570人评价)
◎豆瓣链接 https://movie.douban.com/subject/1296702/
◎片  长 116 分钟
◎导  演 斯图尔特·贝尔德 Stuart Baird
◎编  剧 吉恩·罗登贝瑞 Gene Roddenberry
       约翰·洛根 John Logan
       Rick Berman Rick Berman
       布伦特·斯皮内 Brent Spiner
◎演  员 帕特里克·斯图尔特 Patrick Stewart
       乔纳森·弗雷克斯 Jonathan Frakes
       布伦特·斯皮内 Brent Spiner
       莱瓦尔·伯顿 LeVar Burton
       迈克尔·多恩 Michael Dorn
       玛丽娜·赛提斯 Marina Sirtis
       盖茨·麦克法登 Gates McFadden
       汤姆·哈迪 Tom Hardy
       朗·普尔曼 Ron Perlman
       珊农·克奇兰 Shannon Cochran
       迪娜·迈耶 Dina Meyer
       祖德·塞克利拉 Jude Ciccolella
       阿兰·戴尔 Alan Dale
       约翰·博格 John Berg
       凯特·穆格鲁 Kate Mulgrew
       J.帕特里克·麦克康尔马克 J. Patrick McCormack
       威尔·惠顿 Wil Wheaton
       马杰尔·巴雷特 Majel Barrett
       斯图尔特·贝尔德 Stuart Baird
       Bruce Dobos Bruce Dobos
       乌比·戈德堡 Whoopi Goldberg
       杰伊男爵 Baron Jay
       尼古拉斯·拉尼尔 Nicholas Lanier
       Jasmine Lliteras Jasmine Lliteras
       马蒂·马牟利斯 Marti Matulis
       汤姆·莫尔加 Tom Morga
       Brian Daniel Patterson Brian Daniel Patterson
       Guy Richardson Guy Richardson
       布莱恩·辛格 Bryan Singer
       Doug Wax Doug Wax
       吉恩·罗登贝瑞 Gene Roddenberry
       Rick Berman Rick Berman
       杰瑞·高德史姑娘 Jerry Goldsmith
       杰弗里·L·金鲍 Jeffrey L. Kimball
       凯茜·桑德里奇 Cathy Sandrich
       Amanda Mackey Johnson Amanda Mackey Johnson
       Junie Lowry-Johnson Junie Lowry-Johnson
       约翰·M·德维尔 John M. Dwyer
       Herman F. Zimmerman Herman F. Zimmerman
       Donald B. Woodruff Donald B. Woodruff
       鲍勃·林伍德 Bob Ringwood
       艾伦 A. 安彭 Allan A. Apone
       迈克·迈克尔斯 Myke Michaels
       迈克尔·韦斯特莫 Michael Westmore
       里克·斯特拉顿 Rick Stratton
       特里·巴利尔 Terry Baliel
       杰克·加伯 Jake Garber
       Michael Burnett Michael Burnett
       乔伊·萨帕塔 Joy Zapata
       Toni-Ann Walker Toni-Ann Walker
       David DeLeon David DeLeon
       Rebecca De Morrio Rebecca De Morrio
       Karen Asano-Myers Karen Asano-Myers
       Earl Ellis Earl Ellis
       Ellis Burman Jr. Ellis Burman Jr.
       Ora Green Ora Green
       Judy Crown Judy Crown
       吉尔·罗考 Jill Rockow
       Lumas Hamilton Jr. Lumas Hamilton Jr.
       June Westmore June Westmore
       朱莉亚·L·沃克尔 Julia L. Walker
       Bart Mixon Bart Mixon
       佐尔坦·埃雷克 Zoltan Elek
       Elaina P. Schulman Elaina P. Schulman
       Doug Coleman Doug Coleman
       大卫·萨迪 David Sardi
        Cecilia Sweatman
       巴克·德洛姆 Bac DeLorme
       容.格瑞斯 Ron Gress
       Bill Taylor Bill Taylor
       罗恩·桑顿 Ron Thornton
       凯利·波特 Kelly Port
       David S. Williams Jr. David S. Williams Jr.
       Mike Wassel Mike Wassel
       Aaron James McComas Aaron James McComas
       Sarah Coatts Sarah Coatts
       斯科特·罗斯 Scott Ross
       Douglas Bloom Douglas Bloom
       克拉斯·汉克 Claas Henke
       Sherry Hitch Sherry Hitch
       杰夫·沃尔弗顿 Jeff Wolverton
       R. Christopher Biggs R. Christopher Biggs
       Aladino V. Debert Aladino V. Debert
       肖恩·迪韦罗 Sean Devereaux
       布赖恩·贝根 Brian Begun
       Tony Anderson Tony Anderson
       萨姆·爱德华兹 Sam Edwards
       Robert Nederhorst Robert Nederhorst
       Fred Pienkos Fred Pienkos
       罗伯特·罗尔斯 Robert Rowles
       John Mullin John Mullin
       丹·帕特森 Dan Patterson
       马库斯·库尔茨 Markus Kurtz
       乔治·斯蒂文斯 George Stevens
       Sonja Burchard Sonja Burchard
       Rod Ripley Rod Ripley
       Howie Muzika Howie Muzika
       马克·O·福克 Mark O. Forker
       Syd Dutton Syd Dutton
       Pierre Drolet Pierre Drolet
       布莱恩·吉尔 Bryan Grill
       Steve Mellon Steve Mellon
       肯尼思·琼斯 Kenneth Jones
       Michael Kory Michael Kory
       埃里克·纳什 Erik Nash
       杰米森·弗莱 Jamieson Fry
       Chris Y. Yang Chris Y. Yang
       克里斯·道森 Chris Dawson
       乔纳森·埃格斯塔德 Jonathan Egstad
       John Hart John Hart
◎简  介
  企业号宇宙飞船翱翔在太空,在人类和外星人中心传布美意,同时也在提防敌对星球有能够的进犯行为,由于有迹象表白,星际同盟的老对头罗木兰星球有能够倡议新一轮的进犯。皮卡特船主和他的船员们也在谨慎翼翼的观察着局势的停顿,时辰预备投入战役。                                    
                                可就在这时,罗木兰星球发出了和谈的讯息,星际同盟号令企业号前往谈判,当皮卡特船主第一次见到罗木兰星球新的执政官后惊呆了,本来对方就是罗木兰很久之前制造的皮卡特的人类复制品,面临这个难缠的对手,皮卡特船主和他的船员们该若何是好?
  1. ##### MediaInfo ######
  2. General
  3. Unique ID                                : 243721221232630742296665515004780198942 (0xB75AFFF3401378DA1BC89C2B71FDBC1E)
  4. Complete name                            : Star.Trek.Nemesis.2002.1080p.BluRay.DD.5.1.x265-10bit-TAGHD.mkv
  5. Format                                   : Matroska
  6. Format version                           : Version 4
  7. File size                                : 9.88 GiB
  8. Duration                                 : 1 h 56 min
  9. Overall bit rate                         : 12.1 Mb/s
  10. Encoded date                             : UTC 2022-06-10 15:39:19
  11. Writing application                      : mkvmerge v42.0.0 ('Overtime') 64-bit
  12. Writing library                          : libebml v1.3.10 + libmatroska v1.5.2
  13. Video
  14. ID                                       : 1
  15. Format                                   : HEVC
  16. Format/Info                              : High Efficiency Video Coding
  17. Format profile                           : Main [email protected]@High
  18. Codec ID                                 : V_MPEGH/ISO/HEVC
  19. Duration                                 : 1 h 56 min
  20. Bit rate                                 : 11.5 Mb/s
  21. Width                                    : 1 920 pixels
  22. Height                                   : 816 pixels
  23. Display aspect ratio                     : 2.35:1
  24. Frame rate mode                          : Constant
  25. Frame rate                               : 23.976 (24000/1001/53875) FPS
  26. Color space                              : YUV
  27. Chroma subsampling                       : 4:2:0
  28. Bit depth                                : 10 bits
  29. Bits/(Pixel*Frame)                       : 0.305
  30. Stream size                              : 9.33 GiB (94%)
  31. Writing library                          : x265 3.0+2-ge71f790de+23:[Windows][GCC 8.2.1][64 bit] Yuuki 10bit
  32. Encoding settings                        : rc=crf / crf=18.1000 / qcomp=0.60 / qpstep=4 / stats-write=0 / stats-read=0 / vbv-maxrate=160000 / vbv-bufsize=160000 / vbv-init=0.9 / crf-max=0.0 / crf-min=0.0 / no-lossless / no-cu-lossless / aq-mode=3 / aq-strength=0.80 / cbqpoffs=-2 / crqpoffs=-2 / ipratio=1.40 / pbratio=1.30 / psy-rd=0.90 / psy-rdoq=0.40 / deblock=-3:-3 / ref=4 / limit-refs=1 / limit-modes / bframes=12 / b-adapt=2 / bframe-bias=0 / b-pyramid / b-intra / weightp / weightb / min-keyint=23 / max-keyint=480 / rc-lookahead=40 / gop-lookahead=0 / NTM4NzU=uuDQuD2mJt9fsCf / scenecut=40 / radl=0 / max-cu-size=32 / min-cu-size=8 / me=3 / subme=7 / merange=24 / rdoq-level=1 / rd=4 / rdpenalty=0 / dynamic-rd=0.00 / no-rd-refine / ----- / no-cutree / no-sao / no-rect / no-amp / no-open-gop / wpp / no-pmode / no-pme / no-psnr / no-ssim / nr-intra=0 / nr-inter=0 / no-constrained-intra / strong-intra-smoothing / max-tu-size=32 / tu-inter-depth=3 / tu-intra-depth=3 / limit-tu=4 / qg-size=8 / qpmax=69 / qpmin=0 / ----- / cpuid=538751111039 / frame-threads=4 / numa-pools=16 / log-level=2 / input-csp=1 / input-res=1920x816 / interlace=0 / level-idc=51 / high-tier=1 / uhd-bd=0 / no-allow-non-conformance / no-repeat-headers / no-aud / no-hrd / info / hash=0 / no-temporal-layers / lookahead-slices=0 / no-splice / no-intra-refresh / no-ssim-rd / signhide / no-tskip / max-merge=3 / temporal-mvp / no-analyze-src-pics / no-sao-non-deblock / no-early-skip / rskip / no-fast-intra / no-tskip-fast / no-splitrd-skip / zone-count=0 / no-strict-cbr / no-rc-grain / no-const-vbv / sar=0 / overscan=0 / videoformat=5 / range=0 / colorprim=2 / transfer=2 / colormatrix=2 / chromaloc=0 / display-window=0 / max-cll=0,0 / min-luma=0 / max-luma=1023 / log2-max-poc-lsb=8 / vui-timing-info / vui-hrd-info / slices=1 / no-opt-qp-pps / no-opt-ref-list-length-pps / no-multi-pass-opt-rps / scenecut-bias=0.05 / no-opt-cu-delta-qp / no-aq-motion / no-hdr / no-hdr-opt / no-dhdr10-opt / no-idr-recovery-sei / analysis-reuse-level=5 / scale-factor=0 / refine-intra=0 / refine-inter=0 / refine-mv=0 / refine-ctu-distortion=0 / no-limit-sao / ctu-info=0 / no-lowpass-dct / refine-analysis-type=0 / copy-pic=1 / max-ausize-factor=1.0 / no-dynamic-refine / no-single-sei / no-hevc-aq / qp-adaptation-range=1.00
  33. Default                                  : Yes
  34. Forced                                   : No
  35. Audio
  36. ID                                       : 2
  37. Format                                   : AC-3
  38. Format/Info                              : Audio Coding 3
  39. Commercial name                          : Dolby Digital
  40. Codec ID                                 : A_AC3
  41. Duration                                 : 1 h 56 min
  42. Bit rate mode                            : Constant
  43. Bit rate                                 : 640 kb/s
  44. Channel(s)                               : 6 channels
  45. Channel layout                           : L R C LFE Ls Rs
  46. Sampling rate                            : 48.0 kHz
  47. Frame rate                               : 31.250 FPS (1536 SPF)
  48. Compression mode                         : Lossy
  49. Stream size                              : 533 MiB (5%)
  50. Language                                 : English
  51. Service kind                             : Complete Main
  52. Default                                  : Yes
  53. Forced                                   : No
  54. Text #1
  55. ID                                       : 3
  56. Format                                   : PGS
  57. Muxing mode                              : zlib
  58. Codec ID                                 : S_HDMV/PGS
  59. Codec ID/Info                            : Picture based subtitle format used on BDs/HD-DVDs
  60. Duration                                 : 1 h 46 min
  61. Bit rate                                 : 30.4 kb/s
  62. Count of elements                        : 2070
  63. Stream size                              : 23.2 MiB (0%)
  64. Language                                 : English
  65. Default                                  : No
  66. Forced                                   : No
  67. Text #2
  68. ID                                       : 4
  69. Format                                   : PGS
  70. Muxing mode                              : zlib
  71. Codec ID                                 : S_HDMV/PGS
  72. Codec ID/Info                            : Picture based subtitle format used on BDs/HD-DVDs
  73. Duration                                 : 1 h 46 min
  74. Bit rate                                 : 31.2 kb/s
  75. Count of elements                        : 2200
  76. Stream size                              : 23.8 MiB (0%)
  77. Title                                    : (SDH)
  78. Language                                 : English
  79. Default                                  : No
  80. Forced                                   : No
  81. Text #3
  82. ID                                       : 5
  83. Format                                   : PGS
  84. Muxing mode                              : zlib
  85. Codec ID                                 : S_HDMV/PGS
  86. Codec ID/Info                            : Picture based subtitle format used on BDs/HD-DVDs
  87. Duration                                 : 1 h 46 min
  88. Bit rate                                 : 21.0 kb/s
  89. Count of elements                        : 1662
  90. Stream size                              : 16.0 MiB (0%)
  91. Title                                    : CHS
  92. Language                                 : Chinese
  93. Default                                  : Yes
  94. Forced                                   : No
  95. Text #4
  96. ID                                       : 6
  97. Format                                   : PGS
  98. Muxing mode                              : zlib
  99. Codec ID                                 : S_HDMV/PGS
  100. Codec ID/Info                            : Picture based subtitle format used on BDs/HD-DVDs
  101. Duration                                 : 1 h 46 min
  102. Bit rate                                 : 21.4 kb/s
  103. Count of elements                        : 1662
  104. Stream size                              : 16.3 MiB (0%)
  105. Title                                    : CHT
  106. Language                                 : Chinese
  107. Default                                  : No
  108. Forced                                   : No
  109. Menu
  110. 00:00:00.000                             : en:第 01 章
  111. 00:04:15.297                             : en:第 02 章
  112. 00:08:28.842                             : en:第 03 章
  113. 00:12:00.678                             : en:第 04 章
  114. 00:20:14.797                             : en:第 05 章
  115. 00:23:21.859                             : en:第 06 章
  116. 00:25:47.755                             : en:第 07 章
  117. 00:28:14.484                             : en:第 08 章
  118. 00:34:32.195                             : en:第 09 章
  119. 00:38:42.820                             : en:第 10 章
  120. 00:47:49.700                             : en:第 11 章
  121. 00:51:54.737                             : en:第 12 章
  122. 00:56:56.330                             : en:第 13 章
  123. 01:02:19.736                             : en:第 14 章
  124. 01:06:25.773                             : en:第 15 章
  125. 01:09:49.435                             : en:第 16 章
  126. 01:16:48.020                             : en:第 17 章
  127. 01:20:37.624                             : en:第 18 章
  128. 01:25:35.547                             : en:第 19 章
  129. 01:31:34.906                             : en:第 20 章
  130. 01:35:23.384                             : en:第 21 章
  131. 01:40:29.941                             : en:第 22 章
  132. 01:45:07.801                             : en:第 23 章
  133. 01:49:21.180                             : en:第 24 章
复制代码

















保举请利用qBittorrent,utorrent,transmission等标准BT软件下载!以获得最快速度。奉求保种!





回复

使用道具 举报

蓝光币
26
发表于 前天 09:49 | 显示全部楼层

楼主太厉害了!楼主,电影应该很好看我觉得蓝光电影网真是个好地方!
回复 支持 反对

使用道具 举报

懒得打字嘛,点击右侧快捷回复 【右侧内容,后台自定义】
您需要登录后才可以回帖 登录 | 立即加入

本版积分规则

Archiver|小黑屋| 蓝光电影网 |网站地图

Copyright © 2021 Comsenz Inc. Powered by 蓝光电影网

蓝光电影网

本站内容由用户自主分享和转载自互联网,转载目的在于传递更多信息,并不代表本网赞同其观点和对其真实性负责。

如有侵权、违反国家法律政策行为,请联系我们,我们会第一时间及时清除和处理!

举报反馈邮箱:[email protected]

快速回复 返回顶部 返回列表