找回密码

蓝光电影网

查看: 79|回复: 0

[剧情] 一切顺利 Everything.Went.Fine.2021.FRENCH.1080p.BluRay.x264.DDP5.1-SbR 14.52GB

[复制链接]
蓝光币
886
发表于 2022-7-29 23:19:45 | 显示全部楼层 |阅读模式
[img][/img]

◎标  题 一切顺遂
◎译  名 天堂计划(台) / Everything Went Fine
◎片  名 Tout s'est bien passé
◎年  代 2021
◎产  地 法国
◎类  别 剧情
◎语  言 法语
◎上映日期 2021-07-07(戛纳电影节) / 2021-09-22(法国)
◎IMDb评分 6.9/10 (1511人评价)
◎IMDb链接 https://www.imdb.com/title/tt12847812/
◎豆瓣评分 7.4/10 (2460人评价)
◎豆瓣链接 https://movie.douban.com/subject/35190036/
◎片  长 113分钟
◎导  演 弗朗索瓦·欧容 François Ozon
◎编  剧 弗朗索瓦·欧容 François Ozon
       菲利普·皮亚佐 Philippe Piazzo
       伊曼纽尔·贝尔南 Emmanuèle Bernheim
◎演  员 苏菲·玛索 Sophie Marceau
       安德烈·杜索里埃 André Dussollier
       热拉尔丁娜·帕亚 Géraldine Pailhas
       夏洛特·兰普林 Charlotte Rampling
       埃里克·卡拉瓦卡 Éric Caravaca
       汉娜·许古拉 Hanna Schygulla
       格莱高利·嘉德波瓦 Grégory Gadebois
       朱迪思·马格里 Judith Magre
       雅各·诺勒 Jacques Nolot
       丹尼尔·梅斯吉什 Daniel Mesguich
       娜塔莉·理查德 Nathalie Richard
       丹妮丝·沙朗 Denise Chalem
       Stéphane Hillel Stéphane Hillel
       Frédéric Siuen Frédéric Siuen
       Aymen Saïdi Aymen Saïdi
       拉明·西索科 Lamine Cissokho
◎简  介

  年过八十的父亲忽然中风,艾曼纽在医院和家庭之间往返奔走,要面临罹患帕金森氏症的忧鬱母亲,跟父亲有暗昧关係的昔日情人还时不时跑出来乱。孩提期间的她总因父亲严厉的管束,恨不得将他杀掉,现在父亲竟向她提出请求:“请帮我了结这一切吧!”让她百感交集,堕入两难。面临渐渐老矣、生活已没法自理的父亲,她该帮助他完成杀死自己的心愿吗?                                    
                                改编自《池畔谋杀案》编剧艾曼纽贝尔南的同名小说,报告她帮助父亲安乐死的亲身履历。安乐死常常牵扯到繁重又複杂的伦理道德与法令题目,在法国名导欧容的笔下却举重若轻,以轻盈叙事和诙谐口气,注视父女生射中最深切的一段相处时光,细致描画为人后代心里的挣扎与不捨。苏菲玛索深情而内敛的表演,让这段悠久的离别更显真挚动听。
  1. Video
  2. ID                                       : 1
  3. Format                                   : AVC
  4. Format/Info                              : Advanced Video Codec
  5. Format profile                           : [email protected]
  6. Format settings                          : CABAC / 4 Ref Frames
  7. Format settings, CABAC                   : Yes
  8. Format settings, Reference frames        : 4 frames
  9. Codec ID                                 : V_MPEG4/ISO/AVC
  10. Duration                                 : 1 h 52 min
  11. Bit rate                                 : 17.4 Mb/s
  12. Width                                    : 1 920 pixels
  13. Height                                   : 1 038 pixels
  14. Display aspect ratio                     : 1.85:1
  15. Frame rate mode                          : Constant
  16. Frame rate                               : 24.000 FPS
  17. Color space                              : YUV
  18. Chroma subsampling                       : 4:2:0
  19. Bit depth                                : 8 bits
  20. Scan type                                : Progressive
  21. Bits/(Pixel*Frame)                       : 0.364
  22. Stream size                              : 13.7 GiB (94%)
  23. Writing library                          : x264 core 164 r3094+49M 0246926 devel [(8 & 10)[email protected] X86_64]
  24. Encoding settings                        : cabac=1 / ref=4 / deblock=1:-3:-3 / analyse=0x3:0x133 / me=umh / subme=11 / psy=1 / fade_compensate=0.00 / psy_rd=1.00:0.00 / mixed_ref=1 / me_range=32 / chroma_me=1 / trellis=2 / 8x8dct=1 / cqm=0 / deadzone=21,11 / fast_pskip=1 / chroma_qp_offset=-2 / threads=32 / lookahead_threads=8 / sliced_threads=0 / nr=0 / decimate=1 / interlaced=0 / bluray_compat=0 / constrained_intra=0 / fgo=0 / bframes=10 / b_pyramid=2 / b_adapt=2 / b_bias=0 / direct=3 / weightb=1 / open_gop=0 / weightp=2 / keyint=250 / keyint_min=24 / scenecut=40 / intra_refresh=0 / rc=crf / mbtree=0 / crf=18.0000 / qcomp=0.65 / qpmin=0:0:0 / qpmax=69:69:69 / qpstep=4 / ip_ratio=1.25 / pb_ratio=1.20 / aq=1:0.60 / aq-sensitivity=10.00 / aq-factor=1.00:1.00:1.00 / aq2=0 / aq3=0
  25. Language                                 : French
  26. Default                                  : Yes
  27. Forced                                   : No
  28. Audio
  29. ID                                       : 2
  30. Format                                   : E-AC-3
  31. Format/Info                              : Enhanced AC-3
  32. Commercial name                          : Dolby Digital Plus
  33. Codec ID                                 : A_EAC3
  34. Duration                                 : 1 h 52 min
  35. Bit rate mode                            : Constant
  36. Bit rate                                 : 1 024 kb/s
  37. Channel(s)                               : 6 channels
  38. Channel layout                           : L R C LFE Ls Rs
  39. Sampling rate                            : 48.0 kHz
  40. Frame rate                               : 31.250 FPS (1536 SPF)
  41. Compression mode                         : Lossy
  42. Stream size                              : 827 MiB (6%)
  43. Language                                 : French
  44. Service kind                             : Complete Main
  45. Default                                  : Yes
  46. Forced                                   : No
  47. Text #1
  48. ID                                       : 3
  49. Format                                   : ASS
  50. Codec ID                                 : S_TEXT/ASS
  51. Codec ID/Info                            : Advanced Sub Station Alpha
  52. Duration                                 : 1 h 48 min
  53. Bit rate                                 : 113 b/s
  54. Frame rate                               : 0.218 FPS
  55. Count of elements                        : 1420
  56. Compression mode                         : Lossless
  57. Stream size                              : 90.4 KiB (0%)
  58. Language                                 : Russian
  59. Default                                  : No
  60. Forced                                   : No
  61. Text #2
  62. ID                                       : 4
  63. Format                                   : UTF-8
  64. Codec ID                                 : S_TEXT/UTF8
  65. Codec ID/Info                            : UTF-8 Plain Text
  66. Duration                                 : 1 h 48 min
  67. Bit rate                                 : 74 b/s
  68. Frame rate                               : 0.218 FPS
  69. Count of elements                        : 1420
  70. Stream size                              : 59.6 KiB (0%)
  71. Language                                 : Russian
  72. Default                                  : No
  73. Forced                                   : No
  74. Text #3
  75. ID                                       : 5
  76. Format                                   : ASS
  77. Codec ID                                 : S_TEXT/ASS
  78. Codec ID/Info                            : Advanced Sub Station Alpha
  79. Duration                                 : 1 h 48 min
  80. Bit rate                                 : 79 b/s
  81. Frame rate                               : 0.210 FPS
  82. Count of elements                        : 1369
  83. Compression mode                         : Lossless
  84. Stream size                              : 63.6 KiB (0%)
  85. Language                                 : English
  86. Default                                  : No
  87. Forced                                   : No
  88. Text #4
  89. ID                                       : 6
  90. Format                                   : UTF-8
  91. Codec ID                                 : S_TEXT/UTF8
  92. Codec ID/Info                            : UTF-8 Plain Text
  93. Duration                                 : 1 h 48 min
  94. Bit rate                                 : 42 b/s
  95. Frame rate                               : 0.210 FPS
  96. Count of elements                        : 1369
  97. Stream size                              : 33.8 KiB (0%)
  98. Language                                 : English
  99. Default                                  : No
  100. Forced                                   : No
  101. Text #5
  102. ID                                       : 7
  103. Format                                   : UTF-8
  104. Codec ID                                 : S_TEXT/UTF8
  105. Codec ID/Info                            : UTF-8 Plain Text
  106. Duration                                 : 1 h 49 min
  107. Bit rate                                 : 42 b/s
  108. Frame rate                               : 0.204 FPS
  109. Count of elements                        : 1337
  110. Stream size                              : 34.3 KiB (0%)
  111. Title                                    : Forced
  112. Language                                 : English
  113. Default                                  : No
  114. Forced                                   : No
  115. Text #6
  116. ID                                       : 8
  117. Format                                   : ASS
  118. Codec ID                                 : S_TEXT/ASS
  119. Codec ID/Info                            : Advanced Sub Station Alpha
  120. Duration                                 : 1 h 49 min
  121. Bit rate                                 : 192 b/s
  122. Frame rate                               : 0.298 FPS
  123. Count of elements                        : 1963
  124. Compression mode                         : Lossless
  125. Stream size                              : 155 KiB (0%)
  126. Language                                 : French
  127. Default                                  : No
  128. Forced                                   : No
  129. Menu
  130. 00:00:00.000                             : en:Episode 01
  131. 00:12:41.583                             : en:Episode 02
  132. 00:23:50.708                             : en:Episode 03
  133. 00:32:00.875                             : en:Episode 04
  134. 00:39:26.042                             : en:Episode 05
  135. 00:49:01.292                             : en:Episode 06
  136. 01:00:50.167                             : en:Episode 07
  137. 01:08:35.875                             : en:Episode 08
  138. 01:16:41.833                             : en:Episode 09
  139. 01:28:10.833                             : en:Episode 10
  140. 01:38:22.208                             : en:Episode 11
  141. 01:50:05.042                             : en:Episode 12
复制代码





                                       
                                       

                                       
                                       
                                       




回复

使用道具 举报

懒得打字嘛,点击右侧快捷回复 【右侧内容,后台自定义】
您需要登录后才可以回帖 登录 | 立即加入

本版积分规则

Archiver|小黑屋| 蓝光电影网 |网站地图

Copyright © 2021 Comsenz Inc. Powered by 蓝光电影网

蓝光电影网

本站内容由用户自主分享和转载自互联网,转载目的在于传递更多信息,并不代表本网赞同其观点和对其真实性负责。

如有侵权、违反国家法律政策行为,请联系我们,我们会第一时间及时清除和处理!

举报反馈邮箱:[email protected]

快速回复 返回顶部 返回列表