找回密码

蓝光电影网

查看: 134|回复: 2

[动作] 闯入者 Breaker.Breaker.1977.iNTERNAL.1080p.BluRay.x264-YAMG 12.22GB

[复制链接]
蓝光币
1022
发表于 2022-7-30 09:52:11 | 显示全部楼层 |阅读模式


◎标  题 闯入者
◎译  名 铁拳硬汉闯龙潭
◎片  名 Breaker! Breaker!
◎年  代 1977
◎产  地 美国
◎类  别 行动 / 犯罪 / 冒险
◎语  言 英语
◎上映日期 1977-05-06
◎IMDb评分 4.3/10 (3241人评价)
◎IMDb链接 https://www.imdb.com/title/tt0075783/
◎豆瓣链接 https://movie.douban.com/subject/2132372/
◎片  长 86 分钟
◎导  演 Don Hulette Don Hulette
◎编  剧 Terry Chambers Terry Chambers
◎演  员 Douglas Stevenson Douglas Stevenson
       乔治·穆德克 George Murdock
       The Great John L. The Great John L.
       罗恩·霍姆斯特姆 Ron Holmstrom
       杰克·南斯 Jack Nance
       查克·诺瑞斯 Chuck Norris
       Don Hulette Don Hulette
       Samuel Schulman Samuel Schulman
       Bernard Tabakin Bernard Tabakin
       Don Hulette Don Hulette
       斯蒂文·泽里安 Steven Zaillian
◎标  签 1977 / 行动 / 美国 / 犯罪 / 【P】查克·诺瑞斯 / 美国电影 / 移动 / 橙壳
◎简  介

  卡车司机寻觅他的兄弟,他在一个由败北法官治理的小镇失落了。
  1. Video
  2. ID                                       : 1
  3. Format                                   : AVC
  4. Format/Info                              : Advanced Video Codec
  5. Format profile                           : [email protected]
  6. Format settings                          : CABAC / 4 Ref Frames
  7. Format settings, CABAC                   : Yes
  8. Format settings, Reference frames        : 4 frames
  9. Codec ID                                 : V_MPEG4/ISO/AVC
  10. Duration                                 : 1 h 24 min
  11. Bit rate                                 : 20.0 Mb/s
  12. Width                                    : 1 916 pixels
  13. Height                                   : 1 040 pixels
  14. Display aspect ratio                     : 1.85:1
  15. Frame rate mode                          : Constant
  16. Frame rate                               : 23.976 (24000/1001/189150) FPS
  17. Color space                              : YUV
  18. Chroma subsampling                       : 4:2:0
  19. Bit depth                                : 8 bits
  20. Scan type                                : Progressive
  21. Bits/(Pixel*Frame)                       : 0.418
  22. Stream size                              : 11.8 GiB (97%)
  23. Writing library                          : x264 core 164 r3094 bfc87b7
  24. Encoding settings                        : cabac=1 / ref=4 / deblock=1:-3:-3 / analyse=0x3:0x133 / me=umh / subme=10 / psy=1 / psy_rd=1.00:0.00 / mixed_ref=1 / me_range=32 / chroma_me=1 / trellis=2 / 8x8dct=1 / cqm=0 / deadzone=21,11 / fast_pskip=0 / chroma_qp_offset=-2 / threads=24 / lookahead_threads=4 / sliced_threads=0 / nr=0 / decimate=0 / interlaced=0 / bluray_compat=0 / constrained_intra=0 / bframes=8 / b_pyramid=2 / b_adapt=2 / b_bias=0 / direct=3 / weightb=1 / open_gop=0 / weightp=2 / keyint=250 / keyint_min=23 / scenecut=40 / intra_refresh=0 / rc=crf / mbtree=0 / crf=18.0 / qcomp=0.60 / qpmin=0 / qpmax=69 / qpstep=4 / ip_ratio=1.40 / pb_ratio=1.30 / aq=3:0.60
  25. Language                                 : English
  26. Default                                  : Yes
  27. Forced                                   : No
  28. Color range                              : Limited
  29. Matrix coefficients                      : BT.709

  30. Audio
  31. ID                                       : 2
  32. Format                                   : FLAC
  33. Format/Info                              : Free Lossless Audio Codec
  34. Codec ID                                 : A_FLAC
  35. Duration                                 : 1 h 24 min
  36. Bit rate mode                            : Variable
  37. Bit rate                                 : 680 kb/s
  38. Channel(s)                               : 2 channels
  39. Channel layout                           : L R
  40. Sampling rate                            : 48.0 kHz
  41. Frame rate                               : 11.719 FPS (4096 SPF)
  42. Bit depth                                : 24 bits
  43. Compression mode                         : Lossless
  44. Stream size                              : 412 MiB (3%)
  45. Title                                    : English
  46. Writing library                          : libFLAC 1.3.3 (UTC 2019-08-04)
  47. Language                                 : English
  48. Default                                  : Yes
  49. Forced                                   : No
复制代码





                                       
                                       

                                       
                                       
                                       




回复

使用道具 举报

蓝光币
68
发表于 2022-7-30 17:13:56 | 显示全部楼层

楼主太厉害了!楼主,电影应该很好看我觉得蓝光电影网真是个好地方!
回复 支持 反对

使用道具 举报

蓝光币
190
发表于 2022-7-30 19:45:02 | 显示全部楼层
楼主发贴辛苦了,谢谢楼主分享!我觉得蓝光电影网是注册对了!
回复 支持 反对

使用道具 举报

懒得打字嘛,点击右侧快捷回复 【右侧内容,后台自定义】
您需要登录后才可以回帖 登录 | 立即加入

本版积分规则

Archiver|小黑屋| 蓝光电影网 |网站地图

Copyright © 2021 Comsenz Inc. Powered by 蓝光电影网

蓝光电影网

本站内容由用户自主分享和转载自互联网,转载目的在于传递更多信息,并不代表本网赞同其观点和对其真实性负责。

如有侵权、违反国家法律政策行为,请联系我们,我们会第一时间及时清除和处理!

举报反馈邮箱:[email protected]

快速回复 返回顶部 返回列表