找回密码

蓝光电影网

查看: 144|回复: 1

[剧情] 男人 Men.2022.1080p.BluRay.x264.DTS-HD.MA.5.1-MT 8.91GB

[复制链接]
蓝光币
1022
发表于 2022-7-30 20:46:17 | 显示全部楼层 |阅读模式


◎标  题 汉子
◎译  名 们(台) / 人类 / 人们 / 汉子们 / 人隐士海
◎片  名 Men
◎年  代 2022
◎产  地 英国
◎类  别 剧情 / 科幻 / 可骇
◎语  言 英语
◎上映日期 2022-05-20(美国)
◎IMDb评分 6.3/10 (6372人评价)
◎IMDb链接 https://www.imdb.com/title/tt13841850/
◎豆瓣评分 6.6/10 (398人评价)
◎豆瓣链接 https://movie.douban.com/subject/35341588/
◎片  长 100分钟
◎导  演 亚历克斯·加兰 Alex Garland
◎编  剧 亚历克斯·加兰 Alex Garland
◎演  员 杰西·巴克利 Jessie Buckley
       罗里·金尼尔 Rory Kinnear
       帕帕·厄希度 Paapa Essiedu
       盖尔·兰金 Gayle Rankin
       莎拉·托米 Sarah Twomey
       扎克·罗瑟拉-奥克斯利 Zak Rothera-Oxley
       水野索诺娅 Sonoya Mizuno
◎简  介

  丈夫过世以后,哈珀(杰西巴克利 饰)来到一处美丽的英国村落疗伤,但是,这里的树林中似乎有某人或某物在跟踪她,这些潜藏在她心中隐约的恐惧,随着时候逐步转酿成具体的噩梦……
  1. Video
  2. ID                                       : 1
  3. Format                                   : AVC
  4. Format/Info                              : Advanced Video Codec
  5. Format profile                           : [email protected]
  6. Format settings                          : CABAC / 4 Ref Frames
  7. Format settings, CABAC                   : Yes
  8. Format settings, Reference frames        : 4 frames
  9. Codec ID                                 : V_MPEG4/ISO/AVC
  10. Duration                                 : 1 h 40 min
  11. Bit rate                                 : 9 820 kb/s
  12. Width                                    : 1 920 pixels
  13. Height                                   : 1 038 pixels
  14. Display aspect ratio                     : 1.85:1
  15. Frame rate mode                          : Constant
  16. Frame rate                               : 23.976 (24000/1001/189150) FPS
  17. Color space                              : YUV
  18. Chroma subsampling                       : 4:2:0
  19. Bit depth                                : 8 bits
  20. Scan type                                : Progressive
  21. Bits/(Pixel*Frame)                       : 0.206
  22. Stream size                              : 6.87 GiB (77%)
  23. Writing library                          : x264 core 157 r2938 2b00a84 [email protected] Mod
  24. Encoding settings                        : cabac=1 / ref=4 / deblock=1:-3:-3 / analyse=0x3:0x133 / me=umh / subme=10 / psy=1 / psy_rd=1.05:0.00 / mixed_ref=1 / me_range=32 / chroma_me=1 / trellis=2 / 8x8dct=1 / cqm=0 / deadzone=21,11 / fast_pskip=0 / chroma_qp_offset=-2 / threads=12 / lookahead_threads=2 / sliced_threads=0 / nr=0 / decimate=0 / interlaced=0 / bluray_compat=0 / constrained_intra=0 / bframes=8 / b_pyramid=2 / b_adapt=2 / b_bias=0 / direct=3 / weightb=1 / open_gop=0 / weightp=2 / keyint=250 / keyint_min=24 / scenecut=40 / intra_refresh=0 / rc_lookahead=250 / rc=crf / mbtree=0 / crf=16.8 / qcomp=0.60 / qpmin=0 / qpmax=69 / qpstep=4 / vbv_maxrate=62500 / vbv_bufsize=78125 / crf_max=0.0 / nal_hrd=none / filler=0 / ip_ratio=1.30 / pb_ratio=1.20 / aq=3:0.80
  25. Language                                 : English
  26. Default                                  : Yes
  27. Forced                                   : No
  28. Color range                              : Limited
  29. Color primaries                          : BT.709
  30. Matrix coefficients                      : BT.709
  31. Audio
  32. ID                                       : 2
  33. Format                                   : DTS XLL
  34. Format/Info                              : Digital Theater Systems
  35. Commercial name                          : DTS-HD Master Audio
  36. Codec ID                                 : A_DTS
  37. Duration                                 : 1 h 40 min
  38. Bit rate mode                            : Variable
  39. Bit rate                                 : 2 907 kb/s
  40. Channel(s)                               : 6 channels
  41. Channel layout                           : C L R Ls Rs LFE
  42. Sampling rate                            : 48.0 kHz
  43. Frame rate                               : 93.750 FPS (512 SPF)
  44. Bit depth                                : 24 bits
  45. Compression mode                         : Lossless
  46. Stream size                              : 2.03 GiB (23%)
  47. Language                                 : English
  48. Default                                  : Yes
  49. Forced                                   : No
  50. Text #1
  51. ID                                       : 3
  52. Format                                   : UTF-8
  53. Codec ID                                 : S_TEXT/UTF8
  54. Codec ID/Info                            : UTF-8 Plain Text
  55. Duration                                 : 1 h 37 min
  56. Bit rate                                 : 28 b/s
  57. Frame rate                               : 0.130 FPS
  58. Count of elements                        : 760
  59. Stream size                              : 20.6 KiB (0%)
  60. Language                                 : English
  61. Default                                  : Yes
  62. Forced                                   : No
  63. Text #2
  64. ID                                       : 4
  65. Format                                   : UTF-8
  66. Codec ID                                 : S_TEXT/UTF8
  67. Codec ID/Info                            : UTF-8 Plain Text
  68. Duration                                 : 1 h 37 min
  69. Bit rate                                 : 37 b/s
  70. Frame rate                               : 0.176 FPS
  71. Count of elements                        : 1033
  72. Stream size                              : 26.8 KiB (0%)
  73. Title                                    : SDH
  74. Language                                 : English
  75. Default                                  : No
  76. Forced                                   : No
  77. Text #3
  78. ID                                       : 5
  79. Format                                   : PGS
  80. Muxing mode                              : zlib
  81. Codec ID                                 : S_HDMV/PGS
  82. Codec ID/Info                            : Picture based subtitle format used on BDs/HD-DVDs
  83. Duration                                 : 1 h 37 min
  84. Bit rate                                 : 23.7 kb/s
  85. Frame rate                               : 0.359 FPS
  86. Count of elements                        : 2106
  87. Stream size                              : 16.6 MiB (0%)
  88. Language                                 : English
  89. Default                                  : No
  90. Forced                                   : No
  91. Menu
  92. 00:00:00.000                             : en:Chapter 01
  93. 00:04:54.044                             : en:Chapter 02
  94. 00:11:59.052                             : en:Chapter 03
  95. 00:18:28.232                             : en:Chapter 04
  96. 00:26:45.729                             : en:Chapter 05
  97. 00:30:58.815                             : en:Chapter 06
  98. 00:36:37.779                             : en:Chapter 07
  99. 00:42:47.315                             : en:Chapter 08
  100. 00:50:44.124                             : en:Chapter 09
  101. 00:55:47.427                             : en:Chapter 10
  102. 01:02:08.475                             : en:Chapter 11
  103. 01:07:06.522                             : en:Chapter 12
  104. 01:14:47.692                             : en:Chapter 13
  105. 01:22:11.343                             : en:Chapter 14
  106. 01:24:54.172                             : en:Chapter 15
  107. 01:34:46.139                             : en:Chapter 16
复制代码







                                       
                                       

                                       
                                       
                                       




回复

使用道具 举报

蓝光币
90
发表于 2022-7-30 23:14:51 | 显示全部楼层

我看不错噢 谢谢楼主!蓝光电影网越来越好!
回复 支持 反对

使用道具 举报

懒得打字嘛,点击右侧快捷回复 【右侧内容,后台自定义】
您需要登录后才可以回帖 登录 | 立即加入

本版积分规则

Archiver|小黑屋| 蓝光电影网 |网站地图

Copyright © 2021 Comsenz Inc. Powered by 蓝光电影网

蓝光电影网

本站内容由用户自主分享和转载自互联网,转载目的在于传递更多信息,并不代表本网赞同其观点和对其真实性负责。

如有侵权、违反国家法律政策行为,请联系我们,我们会第一时间及时清除和处理!

举报反馈邮箱:[email protected]

快速回复 返回顶部 返回列表