找回密码

蓝光电影网

查看: 88|回复: 0

[剧情] 局内人[简繁英字幕].Inside.Man.2006.1080p.AMZN.WEB-DL.H264.DDP5.1-TAGWEB 12.08GB

[复制链接]
蓝光币
8
发表于 2022-7-31 01:58:49 | 显示全部楼层 |阅读模式


◎标  题 局内助
◎译  名 案内助(港) / 卧底(台) / 劫战风云 / 套中人 / 内部人士
◎片  名 Inside Man
◎年  代 2006
◎产  地 美国
◎类  别 剧情 / 悬疑 / 惊悚 / 犯罪
◎语  言 英语 / 阿尔巴尼亚语 / 西班牙语
◎上映日期 2006-03-16(阿姆斯特丹首映) / 2006-03-24(美国)
◎IMDb评分 7.6/10 (356381人评价)
◎IMDb链接 https://www.imdb.com/title/tt0454848/
◎豆瓣评分 7.7/10 (68448人评价)
◎豆瓣链接 https://movie.douban.com/subject/1441801/
◎片  长 129分钟
◎导  演 斯派克·李 Spike Lee
◎编  剧 罗赛·格维茨 Russell Gewirtz
◎演  员 丹泽尔·华盛顿 Denzel Washington
       克里夫·欧文 Clive Owen
       朱迪·福斯特 Jodie Foster
       克里斯托弗·普卢默 Christopher Plummer
       威廉·达福 Willem Dafoe
       切瓦特·埃加福 Chiwetel Ejiofor
       金·迪莱克特 Kim Director
       肯·梁 Ken Leung
       萨曼夏·艾弗斯 Samantha Ivers
       Turi Haim Turi Haim
       拉什德·埃内斯托·格林 Rashaad Ernesto Green
       埃德温·弗里曼 Edwin Freeman
       Dominick Mancino Dominick Mancino
       阿什莉·阿特金森 Ashlie Atkinson
       Joanie Ellen Joanie Ellen
       Amir Ali Said Amir Ali Said
       Ed Bogdanowicz Ed Bogdanowicz
       Michael Den Dekker Michael Den Dekker
       Carlos Andrés Gómez Carlos Andrés Gómez
       安东尼·曼加诺 Anthony Mangano
       斯塔尼·科佩 Stany Coppet
       恩维尔·霍查 Enver Hoxha
       瓦里丝·阿卢瓦利亚 Waris Ahluwalia
       杰夫·沃德 Jeff Ward
       史蒂文·韦斯 Steven Weisz
       维克托·科利采奇妙 Victor Colicchio
       Chuck Gerena Chuck Gerena
       Van Hughes Van Hughes
       James Hook James Hook
       Peter Kybart Peter Kybart
       彼得·格雷蒂 Peter Gerety
       Agim Coma Agim Coma
       彼得弗莱切特 Peter Frechette
       Michal Sinnott Michal Sinnott
       达里尔·米切尔 Daryl Mitchell
       Baktash Zaher Baktash Zaher
       本·克劳利 Ben Crowley
       卡桑德拉·弗里曼 Cassandra Freeman
       贾森·曼努尔·奥拉扎巴尔 Jason Manuel Olazabal
       Frank Hopf Frank Hopf
       Philippe Vonlanthen Philippe Vonlanthen
       罗伯特·比齐克 Robert Bizik
       Bernie Rachelle Bernie Rachelle
       詹姆斯·兰索恩 James Ransone
       Lionel Pina Lionel Pina
       阿尔·帕拉戈尼亚 Al Palagonia
       布拉德·利兰 Brad Leland
◎标  签 犯罪 / 悬疑 / 美国 / 剧情 / 警匪 / 2006 / 聪明 / 行动
◎简  介
    华尔街一间热烈的信任银行,某日忽然闯进了4名劫匪,挟持了包括银行员工在内的50名。这伙强盗是在他们的首领道尔顿(克里夫•欧文 Clive Owen 饰)的远程批示下行事的。道尔顿心机慎密、狡猾多疑,他让人质都穿上和强盗一样的衣饰,戴上和强盗一样的面罩,以此来迷惑警方的狙击手和特种军队。警方一时亦无可何如。                                                                      受命参加的探长弗雷泽(丹泽尔•华盛顿 Denzel Washington 饰)试图和道尔顿获得相同,让他开释人质。但是却被道尔顿玩弄于股掌当中。此时,银行的董事阿瑟也赶到了现场,亲近关注案情停顿。但是他关心的不是人质平安,却是他的隐蔽。                                                                      随着时候渐渐曩昔,强盗除了简单的要求外都没有提出其他要求,基辅感应内有乾坤……
  1. ##### MediaInfo ######
  2. General
  3. Unique ID                                : 314993704913295448602666019522230067664 (0xECF994B3262F5F51A0D4E89D3427A1D0)
  4. Complete name                            : Inside.Man.2006.1080p.AMZN.WEB-DL.H264.DDP5.1-TAGWEB.mkv
  5. Format                                   : Matroska
  6. Format version                           : Version 4
  7. File size                                : 12.1 GiB
  8. Duration                                 : 2 h 9 min
  9. Overall bit rate                         : 13.4 Mb/s
  10. Encoded date                             : UTC 2022-07-16 03:24:27
  11. Writing application                      : mkvmerge v67.0.0 ('Under Stars') 64-bit
  12. Writing library                          : libebml v1.4.2 + libmatroska v1.6.4
  13. Video
  14. ID                                       : 1
  15. Format                                   : AVC
  16. Format/Info                              : Advanced Video Codec
  17. Format profile                           : [email protected]
  18. Format settings                          : CABAC / 4 Ref Frames
  19. Format settings, CABAC                   : Yes
  20. Format settings, Reference frames        : 4 frames
  21. Codec ID                                 : V_MPEG4/ISO/AVC
  22. Duration                                 : 2 h 9 min
  23. Bit rate                                 : 10.5 Mb/s
  24. Width                                    : 1 920 pixels
  25. Height                                   : 816 pixels
  26. Display aspect ratio                     : 2.35:1
  27. Frame rate mode                          : Constant
  28. Frame rate                               : 23.976 (24000/1001/53875) FPS
  29. Color space                              : YUV
  30. Chroma subsampling                       : 4:2:0
  31. Bit depth                                : 8 bits
  32. Scan type                                : Progressive
  33. Bits/(Pixel*Frame)                       : 0.281
  34. Stream size                              : 9.53 GiB (79%)
  35. Language                                 : English
  36. Default                                  : Yes
  37. Forced                                   : No
  38. Color range                              : Limited
  39. Color primaries                          : BT.709
  40. Transfer characteristics                 : BT.709
  41. Matrix coefficients                      : BT.709
  42. Audio #1
  43. ID                                       : 2
  44. Format                                   : E-AC-3
  45. Format/Info                              : Enhanced AC-3
  46. Commercial name                          : Dolby Digital Plus
  47. Codec ID                                 : A_EAC3
  48. Duration                                 : 2 h 9 min
  49. Bit rate mode                            : Constant
  50. Bit rate                                 : 640 kb/s
  51. Channel(s)                               : 6 channels
  52. Channel layout                           : L R C LFE Ls Rs
  53. Sampling rate                            : 48.0 kHz
  54. Frame rate                               : 31.250 FPS (1536 SPF)
  55. Compression mode                         : Lossy
  56. Stream size                              : 592 MiB (5%)
  57. Title                                    : English
  58. Language                                 : English
  59. Service kind                             : Complete Main
  60. Default                                  : Yes
  61. Forced                                   : No
  62. Audio #2
  63. ID                                       : 3
  64. Format                                   : E-AC-3
  65. Format/Info                              : Enhanced AC-3
  66. Commercial name                          : Dolby Digital Plus
  67. Codec ID                                 : A_EAC3
  68. Duration                                 : 2 h 9 min
  69. Bit rate mode                            : Constant
  70. Bit rate                                 : 640 kb/s
  71. Channel(s)                               : 6 channels
  72. Channel layout                           : L R C LFE Ls Rs
  73. Sampling rate                            : 48.0 kHz
  74. Frame rate                               : 31.250 FPS (1536 SPF)
  75. Compression mode                         : Lossy
  76. Stream size                              : 592 MiB (5%)
  77. Title                                    : espa?ol
  78. Language                                 : Spanish
  79. Service kind                             : Complete Main
  80. Default                                  : No
  81. Forced                                   : No
  82. Audio #3
  83. ID                                       : 4
  84. Format                                   : E-AC-3
  85. Format/Info                              : Enhanced AC-3
  86. Commercial name                          : Dolby Digital Plus
  87. Codec ID                                 : A_EAC3
  88. Duration                                 : 2 h 9 min
  89. Bit rate mode                            : Constant
  90. Bit rate                                 : 224 kb/s
  91. Channel(s)                               : 2 channels
  92. Channel layout                           : L R
  93. Sampling rate                            : 48.0 kHz
  94. Frame rate                               : 31.250 FPS (1536 SPF)
  95. Compression mode                         : Lossy
  96. Stream size                              : 207 MiB (2%)
  97. Title                                    : Deutsch
  98. Language                                 : German
  99. Service kind                             : Complete Main
  100. Default                                  : No
  101. Forced                                   : No
  102. Audio #4
  103. ID                                       : 5
  104. Format                                   : E-AC-3
  105. Format/Info                              : Enhanced AC-3
  106. Commercial name                          : Dolby Digital Plus
  107. Codec ID                                 : A_EAC3
  108. Duration                                 : 2 h 9 min
  109. Bit rate mode                            : Constant
  110. Bit rate                                 : 224 kb/s
  111. Channel(s)                               : 2 channels
  112. Channel layout                           : L R
  113. Sampling rate                            : 48.0 kHz
  114. Frame rate                               : 31.250 FPS (1536 SPF)
  115. Compression mode                         : Lossy
  116. Stream size                              : 207 MiB (2%)
  117. Title                                    : fran?ais
  118. Language                                 : French
  119. Service kind                             : Complete Main
  120. Default                                  : No
  121. Forced                                   : No
  122. Audio #5
  123. ID                                       : 6
  124. Format                                   : E-AC-3
  125. Format/Info                              : Enhanced AC-3
  126. Commercial name                          : Dolby Digital Plus
  127. Codec ID                                 : A_EAC3
  128. Duration                                 : 2 h 9 min
  129. Bit rate mode                            : Constant
  130. Bit rate                                 : 224 kb/s
  131. Channel(s)                               : 2 channels
  132. Channel layout                           : L R
  133. Sampling rate                            : 48.0 kHz
  134. Frame rate                               : 31.250 FPS (1536 SPF)
  135. Compression mode                         : Lossy
  136. Stream size                              : 207 MiB (2%)
  137. Title                                    : italiano
  138. Language                                 : Italian
  139. Service kind                             : Complete Main
  140. Default                                  : No
  141. Forced                                   : No
  142. Audio #6
  143. ID                                       : 7
  144. Format                                   : E-AC-3
  145. Format/Info                              : Enhanced AC-3
  146. Commercial name                          : Dolby Digital Plus
  147. Codec ID                                 : A_EAC3
  148. Duration                                 : 2 h 9 min
  149. Bit rate mode                            : Constant
  150. Bit rate                                 : 224 kb/s
  151. Channel(s)                               : 2 channels
  152. Channel layout                           : L R
  153. Sampling rate                            : 48.0 kHz
  154. Frame rate                               : 31.250 FPS (1536 SPF)
  155. Compression mode                         : Lossy
  156. Stream size                              : 207 MiB (2%)
  157. Title                                    : polski
  158. Language                                 : Polish
  159. Service kind                             : Complete Main
  160. Default                                  : No
  161. Forced                                   : No
  162. Audio #7
  163. ID                                       : 8
  164. Format                                   : E-AC-3
  165. Format/Info                              : Enhanced AC-3
  166. Commercial name                          : Dolby Digital Plus
  167. Codec ID                                 : A_EAC3
  168. Duration                                 : 2 h 9 min
  169. Bit rate mode                            : Constant
  170. Bit rate                                 : 640 kb/s
  171. Channel(s)                               : 6 channels
  172. Channel layout                           : L R C LFE Ls Rs
  173. Sampling rate                            : 48.0 kHz
  174. Frame rate                               : 31.250 FPS (1536 SPF)
  175. Compression mode                         : Lossy
  176. Stream size                              : 592 MiB (5%)
  177. Title                                    : português
  178. Language                                 : Portuguese
  179. Service kind                             : Complete Main
  180. Default                                  : No
  181. Forced                                   : No
  182. Text #1
  183. ID                                       : 9
  184. Format                                   : UTF-8
  185. Codec ID                                 : S_TEXT/UTF8
  186. Codec ID/Info                            : UTF-8 Plain Text
  187. Duration                                 : 2 h 2 min
  188. Bit rate                                 : 55 b/s
  189. Count of elements                        : 1905
  190. Stream size                              : 49.9 KiB (0%)
  191. Title                                    : 中文 (简体)
  192. Language                                 : Chinese
  193. Default                                  : Yes
  194. Forced                                   : No
  195. Text #2
  196. ID                                       : 10
  197. Format                                   : UTF-8
  198. Codec ID                                 : S_TEXT/UTF8
  199. Codec ID/Info                            : UTF-8 Plain Text
  200. Duration                                 : 2 h 1 min
  201. Bit rate                                 : 55 b/s
  202. Count of elements                        : 2129
  203. Stream size                              : 49.9 KiB (0%)
  204. Title                                    : 中文 (繁體)
  205. Language                                 : Chinese
  206. Default                                  : No
  207. Forced                                   : No
  208. Text #3
  209. ID                                       : 11
  210. Format                                   : UTF-8
  211. Codec ID                                 : S_TEXT/UTF8
  212. Codec ID/Info                            : UTF-8 Plain Text
  213. Duration                                 : 2 h 2 min
  214. Bit rate                                 : 88 b/s
  215. Count of elements                        : 2152
  216. Stream size                              : 79.9 KiB (0%)
  217. Title                                    : English (United States)
  218. Language                                 : English
  219. Default                                  : No
  220. Forced                                   : No
  221. Text #4
  222. ID                                       : 12
  223. Format                                   : UTF-8
  224. Codec ID                                 : S_TEXT/UTF8
  225. Codec ID/Info                            : UTF-8 Plain Text
  226. Duration                                 : 2 h 1 min
  227. Bit rate                                 : 124 b/s
  228. Count of elements                        : 1912
  229. Stream size                              : 111 KiB (0%)
  230. Title                                    : ??????? (???)
  231. Language                                 : Arabic
  232. Default                                  : No
  233. Forced                                   : No
  234. Text #5
  235. ID                                       : 13
  236. Format                                   : UTF-8
  237. Codec ID                                 : S_TEXT/UTF8
  238. Codec ID/Info                            : UTF-8 Plain Text
  239. Duration                                 : 2 h 7 min
  240. Bit rate                                 : 62 b/s
  241. Count of elements                        : 1903
  242. Stream size                              : 58.1 KiB (0%)
  243. Title                                    : ?e?tina (?esko)
  244. Language                                 : Czech
  245. Default                                  : No
  246. Forced                                   : No
  247. Text #6
  248. ID                                       : 14
  249. Format                                   : UTF-8
  250. Codec ID                                 : S_TEXT/UTF8
  251. Codec ID/Info                            : UTF-8 Plain Text
  252. Duration                                 : 2 h 2 min
  253. Bit rate                                 : 67 b/s
  254. Count of elements                        : 1906
  255. Stream size                              : 60.1 KiB (0%)
  256. Title                                    : dansk (Danmark)
  257. Language                                 : Danish
  258. Default                                  : No
  259. Forced                                   : No
  260. Text #7
  261. ID                                       : 15
  262. Format                                   : UTF-8
  263. Codec ID                                 : S_TEXT/UTF8
  264. Codec ID/Info                            : UTF-8 Plain Text
  265. Duration                                 : 2 h 2 min
  266. Bit rate                                 : 88 b/s
  267. Count of elements                        : 1907
  268. Stream size                              : 79.2 KiB (0%)
  269. Title                                    : Deutsch (Deutschland)
  270. Language                                 : German
  271. Default                                  : No
  272. Forced                                   : No
  273. Text #8
  274. ID                                       : 16
  275. Format                                   : UTF-8
  276. Codec ID                                 : S_TEXT/UTF8
  277. Codec ID/Info                            : UTF-8 Plain Text
  278. Duration                                 : 2 h 2 min
  279. Bit rate                                 : 119 b/s
  280. Count of elements                        : 1911
  281. Stream size                              : 107 KiB (0%)
  282. Title                                    : Ελληνικ? (Ελλ?δα)
  283. Language                                 : Greek
  284. Default                                  : No
  285. Forced                                   : No
  286. Text #9
  287. ID                                       : 17
  288. Format                                   : UTF-8
  289. Codec ID                                 : S_TEXT/UTF8
  290. Codec ID/Info                            : UTF-8 Plain Text
  291. Duration                                 : 2 h 2 min
  292. Bit rate                                 : 81 b/s
  293. Count of elements                        : 1909
  294. Stream size                              : 73.2 KiB (0%)
  295. Title                                    : espa?ol (Latinoamérica)
  296. Language                                 : Spanish
  297. Default                                  : No
  298. Forced                                   : No
  299. Text #10
  300. ID                                       : 18
  301. Format                                   : UTF-8
  302. Codec ID                                 : S_TEXT/UTF8
  303. Codec ID/Info                            : UTF-8 Plain Text
  304. Duration                                 : 2 h 2 min
  305. Bit rate                                 : 71 b/s
  306. Count of elements                        : 1907
  307. Stream size                              : 63.5 KiB (0%)
  308. Title                                    : espa?ol (Espa?a)
  309. Language                                 : Spanish
  310. Default                                  : No
  311. Forced                                   : No
  312. Text #11
  313. ID                                       : 19
  314. Format                                   : UTF-8
  315. Codec ID                                 : S_TEXT/UTF8
  316. Codec ID/Info                            : UTF-8 Plain Text
  317. Duration                                 : 2 h 2 min
  318. Bit rate                                 : 63 b/s
  319. Count of elements                        : 1906
  320. Stream size                              : 57.0 KiB (0%)
  321. Title                                    : suomi (Suomi)
  322. Language                                 : Finnish
  323. Default                                  : No
  324. Forced                                   : No
  325. Text #12
  326. ID                                       : 20
  327. Format                                   : UTF-8
  328. Codec ID                                 : S_TEXT/UTF8
  329. Codec ID/Info                            : UTF-8 Plain Text
  330. Duration                                 : 2 h 2 min
  331. Bit rate                                 : 94 b/s
  332. Count of elements                        : 1576
  333. Stream size                              : 84.5 KiB (0%)
  334. Title                                    : ????? (?????)
  335. Language                                 : Hebrew
  336. Default                                  : No
  337. Forced                                   : No
  338. Text #13
  339. ID                                       : 21
  340. Format                                   : UTF-8
  341. Codec ID                                 : S_TEXT/UTF8
  342. Codec ID/Info                            : UTF-8 Plain Text
  343. Duration                                 : 2 h 2 min
  344. Bit rate                                 : 193 b/s
  345. Count of elements                        : 1894
  346. Stream size                              : 173 KiB (0%)
  347. Title                                    : ?????? (????)
  348. Language                                 : Hindi
  349. Default                                  : No
  350. Forced                                   : No
  351. Text #14
  352. ID                                       : 22
  353. Format                                   : UTF-8
  354. Codec ID                                 : S_TEXT/UTF8
  355. Codec ID/Info                            : UTF-8 Plain Text
  356. Duration                                 : 2 h 2 min
  357. Bit rate                                 : 65 b/s
  358. Count of elements                        : 1903
  359. Stream size                              : 59.0 KiB (0%)
  360. Title                                    : magyar (Magyarország)
  361. Language                                 : Hungarian
  362. Default                                  : No
  363. Forced                                   : No
  364. Text #15
  365. ID                                       : 23
  366. Format                                   : UTF-8
  367. Codec ID                                 : S_TEXT/UTF8
  368. Codec ID/Info                            : UTF-8 Plain Text
  369. Duration                                 : 2 h 2 min
  370. Bit rate                                 : 72 b/s
  371. Count of elements                        : 1921
  372. Stream size                              : 64.5 KiB (0%)
  373. Title                                    : bahasa Indonesia (Indonesia)
  374. Language                                 : Indonesian
  375. Default                                  : No
  376. Forced                                   : No
  377. Text #16
  378. ID                                       : 24
  379. Format                                   : UTF-8
  380. Codec ID                                 : S_TEXT/UTF8
  381. Codec ID/Info                            : UTF-8 Plain Text
  382. Duration                                 : 2 h 2 min
  383. Bit rate                                 : 76 b/s
  384. Count of elements                        : 1907
  385. Stream size                              : 68.5 KiB (0%)
  386. Title                                    : italiano (Italia)
  387. Language                                 : Italian
  388. Default                                  : No
  389. Forced                                   : No
  390. Text #17
  391. ID                                       : 25
  392. Format                                   : UTF-8
  393. Codec ID                                 : S_TEXT/UTF8
  394. Codec ID/Info                            : UTF-8 Plain Text
  395. Duration                                 : 2 h 2 min
  396. Bit rate                                 : 67 b/s
  397. Count of elements                        : 1817
  398. Stream size                              : 60.8 KiB (0%)
  399. Title                                    : 日本語 (日本)
  400. Language                                 : Japanese
  401. Default                                  : No
  402. Forced                                   : No
  403. Text #18
  404. ID                                       : 26
  405. Format                                   : UTF-8
  406. Codec ID                                 : S_TEXT/UTF8
  407. Codec ID/Info                            : UTF-8 Plain Text
  408. Duration                                 : 2 h 1 min
  409. Bit rate                                 : 58 b/s
  410. Count of elements                        : 1913
  411. Stream size                              : 52.4 KiB (0%)
  412. Title                                    : ??? (????)
  413. Language                                 : Korean
  414. Default                                  : No
  415. Forced                                   : No
  416. Text #19
  417. ID                                       : 27
  418. Format                                   : UTF-8
  419. Codec ID                                 : S_TEXT/UTF8
  420. Codec ID/Info                            : UTF-8 Plain Text
  421. Duration                                 : 2 h 2 min
  422. Bit rate                                 : 80 b/s
  423. Count of elements                        : 1947
  424. Stream size                              : 72.2 KiB (0%)
  425. Title                                    : bahasa Malaysia (Malaysia)
  426. Language                                 : Malay
  427. Default                                  : No
  428. Forced                                   : No
  429. Text #20
  430. ID                                       : 28
  431. Format                                   : UTF-8
  432. Codec ID                                 : S_TEXT/UTF8
  433. Codec ID/Info                            : UTF-8 Plain Text
  434. Duration                                 : 2 h 2 min
  435. Bit rate                                 : 68 b/s
  436. Count of elements                        : 1905
  437. Stream size                              : 61.1 KiB (0%)
  438. Title                                    : norsk bokm?l (Norge)
  439. Language                                 : Norwegian Bokmal
  440. Default                                  : No
  441. Forced                                   : No
  442. Text #21
  443. ID                                       : 29
  444. Format                                   : UTF-8
  445. Codec ID                                 : S_TEXT/UTF8
  446. Codec ID/Info                            : UTF-8 Plain Text
  447. Duration                                 : 2 h 2 min
  448. Bit rate                                 : 59 b/s
  449. Count of elements                        : 1907
  450. Stream size                              : 53.0 KiB (0%)
  451. Title                                    : Nederlands (Nederland)
  452. Language                                 : Dutch
  453. Default                                  : No
  454. Forced                                   : No
  455. Text #22
  456. ID                                       : 30
  457. Format                                   : UTF-8
  458. Codec ID                                 : S_TEXT/UTF8
  459. Codec ID/Info                            : UTF-8 Plain Text
  460. Duration                                 : 2 h 1 min
  461. Bit rate                                 : 68 b/s
  462. Count of elements                        : 1907
  463. Stream size                              : 60.8 KiB (0%)
  464. Title                                    : polski (Polska)
  465. Language                                 : Polish
  466. Default                                  : No
  467. Forced                                   : No
  468. Text #23
  469. ID                                       : 31
  470. Format                                   : UTF-8
  471. Codec ID                                 : S_TEXT/UTF8
  472. Codec ID/Info                            : UTF-8 Plain Text
  473. Duration                                 : 2 h 2 min
  474. Bit rate                                 : 64 b/s
  475. Count of elements                        : 1908
  476. Stream size                              : 57.5 KiB (0%)
  477. Title                                    : português (Brasil)
  478. Language                                 : Portuguese
  479. Default                                  : No
  480. Forced                                   : No
  481. Text #24
  482. ID                                       : 32
  483. Format                                   : UTF-8
  484. Codec ID                                 : S_TEXT/UTF8
  485. Codec ID/Info                            : UTF-8 Plain Text
  486. Duration                                 : 2 h 2 min
  487. Bit rate                                 : 76 b/s
  488. Count of elements                        : 1905
  489. Stream size                              : 67.9 KiB (0%)
  490. Title                                    : português (Portugal)
  491. Language                                 : Portuguese
  492. Default                                  : No
  493. Forced                                   : No
  494. Text #25
  495. ID                                       : 33
  496. Format                                   : UTF-8
  497. Codec ID                                 : S_TEXT/UTF8
  498. Codec ID/Info                            : UTF-8 Plain Text
  499. Duration                                 : 2 h 2 min
  500. Bit rate                                 : 69 b/s
  501. Count of elements                        : 1907
  502. Stream size                              : 62.0 KiB (0%)
  503. Title                                    : roman? (Romania)
  504. Language                                 : Romanian
  505. Default                                  : No
  506. Forced                                   : No
  507. Text #26
  508. ID                                       : 34
  509. Format                                   : UTF-8
  510. Codec ID                                 : S_TEXT/UTF8
  511. Codec ID/Info                            : UTF-8 Plain Text
  512. Duration                                 : 2 h 2 min
  513. Bit rate                                 : 135 b/s
  514. Count of elements                        : 1893
  515. Stream size                              : 121 KiB (0%)
  516. Title                                    : русский (Россия)
  517. Language                                 : Russian
  518. Default                                  : No
  519. Forced                                   : No
  520. Text #27
  521. ID                                       : 35
  522. Format                                   : UTF-8
  523. Codec ID                                 : S_TEXT/UTF8
  524. Codec ID/Info                            : UTF-8 Plain Text
  525. Duration                                 : 2 h 2 min
  526. Bit rate                                 : 69 b/s
  527. Count of elements                        : 1905
  528. Stream size                              : 62.5 KiB (0%)
  529. Title                                    : svenska (Sverige)
  530. Language                                 : Swedish
  531. Default                                  : No
  532. Forced                                   : No
  533. Text #28
  534. ID                                       : 36
  535. Format                                   : UTF-8
  536. Codec ID                                 : S_TEXT/UTF8
  537. Codec ID/Info                            : UTF-8 Plain Text
  538. Duration                                 : 2 h 7 min
  539. Bit rate                                 : 176 b/s
  540. Count of elements                        : 1801
  541. Stream size                              : 165 KiB (0%)
  542. Title                                    : ??? (???)
  543. Language                                 : Thai
  544. Default                                  : No
  545. Forced                                   : No
  546. Text #29
  547. ID                                       : 37
  548. Format                                   : UTF-8
  549. Codec ID                                 : S_TEXT/UTF8
  550. Codec ID/Info                            : UTF-8 Plain Text
  551. Duration                                 : 2 h 2 min
  552. Bit rate                                 : 81 b/s
  553. Count of elements                        : 1807
  554. Stream size                              : 72.9 KiB (0%)
  555. Title                                    : Türk?e (Türkiye)
  556. Language                                 : Turkish
  557. Default                                  : No
  558. Forced                                   : No
  559. Text #30
  560. ID                                       : 38
  561. Format                                   : UTF-8
  562. Codec ID                                 : S_TEXT/UTF8
  563. Codec ID/Info                            : UTF-8 Plain Text
  564. Duration                                 : 2 h 2 min
  565. Bit rate                                 : 102 b/s
  566. Count of elements                        : 2007
  567. Stream size                              : 91.2 KiB (0%)
  568. Title                                    : Ti?ng Vi?t (Vi?t Nam)
  569. Language                                 : Vietnamese
  570. Default                                  : No
  571. Forced                                   : No
  572. Menu
  573. 00:00:00.000                             : en:Studio Logos
  574. 00:00:42.000                             : en:Dalton Russell Introduces Himself
  575. 00:01:40.000                             : en:Opening Credits
  576. 00:04:14.000                             : en:The Thieves Get to Work
  577. 00:08:50.000                             : en:Detective Frazier Plans His Evening
  578. 00:11:16.000                             : en:The NYPD Responds to the Robbery
  579. 00:13:07.000                             : en:Arthur Case Learns of the Situation
  580. 00:14:05.000                             : en:Frazier Arrives on the Scene
  581. 00:15:06.000                             : en:The Thieves Confiscate Cell Phones and Clothing, Manhattan Trust Bank
  582. 00:20:39.000                             : en:Frazier Introduces Himself to Captain Darius
  583. 00:22:44.000                             : en:Dalton Sets a Sick Man Free
  584. 00:24:03.000                             : en:The Thieves Head to the Vaults
  585. 00:25:32.000                             : en:Mr. Case Offers Madeleine a Job
  586. 00:27:32.000                             : en:The Detectives Interrogate the Hostages
  587. 00:28:55.000                             : en:Darius Briefs Frazier on the Situation
  588. 00:30:25.000                             : en:Madeleine Tells Mr. Case Her Terms
  589. 00:32:38.000                             : en:Detective Mitchell Finds the Thieves' Van
  590. 00:33:19.000                             : en:The Detectives Watch Dalton Kill the Cameras
  591. 00:34:36.000                             : en:The Thieves Release Another Hostage
  592. 00:36:54.000                             : en:Madeleine Asks a Favor of the Mayor
  593. 00:38:39.000                             : en:The Detectives Interview Vikram Walia
  594. 00:40:20.000                             : en:The Thieves Make Demands
  595. 00:43:16.000                             : en:A Hostage Gets Out of Line, Manhattan Bank
  596. 00:44:28.000                             : en:The Detectives Question a Partially Deaf Man
  597. 00:45:32.000                             : en:Frazier Delivers Pizza
  598. 00:46:41.000                             : en:The Thieves Reorganize the Hostages
  599. 00:48:54.000                             : en:Frazier's Case Takes Confusing Turns
  600. 00:52:30.000                             : en:Dalton Questions Brian's Taste in Video Games
  601. 00:55:26.000                             : en:Frazier Gets an Albanian Translator
  602. 00:57:17.000                             : en:Stevie Cracks a Safety Deposit Box
  603. 00:58:49.000                             : en:The Mayor Introduces Frazier to Madeleine
  604. 01:00:25.000                             : en:Frazier and Dalton Start Negotiations
  605. 01:03:43.000                             : en:Dalton Poses a Riddle
  606. 01:06:50.000                             : en:Frazier Calls His Girlfriend
  607. 01:08:53.000                             : en:Dalton Tells Madeleine a Story
  608. 01:12:34.000                             : en:Dalton Presses Madeleine for Information
  609. 01:14:39.000                             : en:The Detectives Interrogate More Hostages
  610. 01:17:25.000                             : en:Frazier Offers Dalton a Plane
  611. 01:19:09.000                             : en:Dalton Gives Frazier a Tour of the Bank
  612. 01:22:52.000                             : en:Dalton Offers Frazier Relationship Advice
  613. 01:25:18.000                             : en:The Thieves Shoot a Hostage
  614. 01:28:58.000                             : en:Darius Plans for Every Contingency
  615. 01:32:38.000                             : en:Darius and Dalton Prepare for the Assault
  616. 01:36:20.000                             : en:The ESU Team Clears the Bank, Manhattan Trust Bank
  617. 01:40:03.000                             : en:The NYPD Documents and Sorts the Hostages
  618. 01:42:01.000                             : en:A Lack of Evidence Puzzles Frazier
  619. 01:44:53.000                             : en:Madeleine Dissuades Frazier from Further Investigation
  620. 01:47:04.000                             : en:Madeleine and Mr. Case Lay Their Cards on the Table
  621. 01:50:53.000                             : en:Dalton's Plan Comes to Fruition
  622. 01:56:03.000                             : en:Frazier Asks Mr. Case about Box 392
  623. 01:59:37.000                             : en:Frazier Interrupts Madeleine's Lunch
  624. 02:00:58.000                             : en:Frazier Goes Home to Sylvia
  625. 02:02:53.000                             : en:End Credits
复制代码

















保举请利用qBittorrent,utorrent,transmission等标准BT软件下载!以获得最快速度。奉求保种!





回复

使用道具 举报

懒得打字嘛,点击右侧快捷回复 【右侧内容,后台自定义】
您需要登录后才可以回帖 登录 | 立即加入

本版积分规则

Archiver|小黑屋| 蓝光电影网 |网站地图

Copyright © 2021 Comsenz Inc. Powered by 蓝光电影网

蓝光电影网

本站内容由用户自主分享和转载自互联网,转载目的在于传递更多信息,并不代表本网赞同其观点和对其真实性负责。

如有侵权、违反国家法律政策行为,请联系我们,我们会第一时间及时清除和处理!

举报反馈邮箱:[email protected]

快速回复 返回顶部 返回列表