找回密码

蓝光电影网

查看: 65|回复: 1

[剧情] R2B:回到基地[繁英字幕].Soar.Into.The.Sun.2012.BluRay.1080p.TrueHD.5.1.x265.10bit-ALT 8.87GB

[复制链接]
蓝光币
7
发表于 2022-7-31 01:58:49 | 显示全部楼层 |阅读模式


◎标  题 R2B:回到基地
◎译  名 壮志冲天(港) / R2B:猎鹰行动(台) / R2B:返回基地 / 翱翔:靠近太阳 / R2B:极速返航 / R2B:重返基地 / Soar into the Sun / R2B: 리턴투베이스
◎片  名 알투비 : 리턴투베이스
◎年  代 2012
◎产  地 韩国
◎类  别 剧情 / 行动
◎语  言 韩语
◎上映日期 2012-08-14(韩国)
◎IMDb评分 5.9/10 (1671人评价)
◎IMDb链接 https://www.imdb.com/title/tt2253742/
◎豆瓣评分 6.6/10 (5461人评价)
◎豆瓣链接 https://movie.douban.com/subject/5395262/
◎片  长 113分钟(韩国)
◎导  演 金东元 Dong-won Kim
◎编  剧 李满熙 Man-Hee Lee
       安相勋 Sang-hoon Ahn
◎演  员 郑智薰 Rain
       申世京 Se-Kyung Shin
       刘俊相 Jun-sang Yu
       吴达洙 Dal-su Oh
       李荷娜 Ha-na Lee
       金圣洙 Seong-su Kim
       李钟硕 Jong-suk Lee
       郑锡元 Suk-won Jung
       金成贤 Seong-hyeon Kim
       朴成焄 Sung-hoon Park
       崔范浩 Beom-ho Choi
       赵成夏 Sung-ha Cho
       许圭 Heo Gyu
       金炯柱 Hyeong-ju Kim
       In-Ho Lee In-Ho Lee
       Youngho Je Youngho Je
◎简  介
  此片是Rain参军前主演的最初一部作品,号称韩国版《壮志凌云》。                                       
                                    影片翻拍自1964年申相玉导演的以625战争为布景的空战影片《红色围巾》。                                       
                                    空军特别飞翔队号称“黑色猎鹰”的飞翔员泰勋(郑智薰 饰)在空中表演中利用了被明令制止的飞翔技术“无引擎减速”,把现场搞得一团糟,桀骜性情也令带领深感头痛,干脆借此将他“下放”到“21战役飞翔队”。在队内,泰勋结识了同期生侑珍和子弟锡炫,并渐渐顺应了新情况的生活。但是,泰勋和对内号称“狙击之神”的哲熙总是起争论,终究两报酬庄严名誉而战的F15K飞翔决战中,泰勋初次遭受失利。随后,他与机械队最出色的机械师世英组成一队,策划加入“Boramae空中射击角逐”,借此规复自负心。某天,一架不明敌机突袭首尔上空,毫无预备的21战役飞翔队与其展开了殊死奋斗,虽然损失惨重,但到底控制住了场面。全部半岛堕入了更大的诡计漩涡,21...
  1. ##### MediaInfo ######
  2. General
  3. Unique ID                                : 314609695062534841813751551991742939709 (0xECAF9F8D69D4D11EBCA93DECB447423D)
  4. Complete name                            : Soar.Into.The.Sun.2012.BluRay.1080p.TrueHD.5.1.x265.10bit-ALT.mkv
  5. Format                                   : Matroska
  6. Format version                           : Version 4
  7. File size                                : 8.87 GiB
  8. Duration                                 : 1 h 54 min
  9. Overall bit rate mode                    : Variable
  10. Overall bit rate                         : 11.0 Mb/s
  11. Encoded date                             : UTC 2022-03-02 04:49:44
  12. Writing application                      : mkvmerge v49.0.0 ('Sick Of Losing Soulmates') 64-bit
  13. Writing library                          : libebml v1.4.0 + libmatroska v1.6.1
  14. Video
  15. ID                                       : 1
  16. Format                                   : HEVC
  17. Format/Info                              : High Efficiency Video Coding
  18. Format profile                           : Main [email protected]@High
  19. Codec ID                                 : V_MPEGH/ISO/HEVC
  20. Duration                                 : 1 h 54 min
  21. Bit rate                                 : 7 082 kb/s
  22. Width                                    : 1 920 pixels
  23. Height                                   : 804 pixels
  24. Display aspect ratio                     : 2.40:1
  25. Frame rate mode                          : Constant
  26. Frame rate                               : 24.000 FPS
  27. Color space                              : YUV
  28. Chroma subsampling                       : 4:2:0
  29. Bit depth                                : 10 bits
  30. Bits/(Pixel*Frame)                       : 0.191
  31. Stream size                              : 5.69 GiB (64%)
  32. Title                                    : HEVC, [email protected]@High, 24 fps @ 7082 kbps
  33. Writing library                          : x265 3.4+14-gd419c7152:[Windows][GCC 10.2.0][64 bit] 10bit
  34. Encoding settings                        : cpuid=538751049583 / frame-threads=2 / numa-pools=4 / wpp / pmode / pme / no-psnr / no-ssim / log-level=2 / input-csp=1 / input-res=1920x804 / interlace=0 / total-frames=165515 / level-idc=51 / high-tier=1 / uhd-bd=0 / ref=5 / no-allow-non-conformance / no-repeat-headers / annexb / no-aud / no-hrd / info / hash=0 / no-temporal-layers / open-gop / min-keyint=24 / keyint=240 / gop-lookahead=0 / bframes=6 / b-adapt=2 / b-pyramid / bframe-bias=0 / rc-lookahead=40 / lookahead-slices=0 / NTM4NzU=uuDQuD2mJt9fsCf / scenecut=40 / hist-scenecut=0 / radl=0 / no-splice / no-intra-refresh / ctu=32 / min-cu-size=8 / no-rect / no-amp / max-tu-size=32 / tu-inter-depth=3 / tu-intra-depth=3 / limit-tu=4 / rdoq-level=2 / dynamic-rd=0.00 / no-ssim-rd / signhide / no-tskip / nr-intra=0 / nr-inter=0 / no-constrained-intra / no-strong-intra-smoothing / max-merge=4 / limit-refs=1 / limit-modes / me=3 / subme=4 / merange=25 / temporal-mvp / no-frame-dup / no-hme / weightp / weightb / no-analyze-src-pics / deblock=-3:-3 / no-sao / no-sao-non-deblock / rd=6 / selective-sao=0 / no-early-skip / rskip / no-fast-intra / no-tskip-fast / no-cu-lossless / b-intra / no-splitrd-skip / rdpenalty=0 / psy-rd=2.00 / psy-rdoq=1.00 / no-rd-refine / no-lossless / cbqpoffs=0 / crqpoffs=0 / rc=crf / crf=17.0 / qcomp=0.65 / qpstep=4 / stats-write=0 / stats-read=0 / vbv-maxrate=80000 / vbv-bufsize=80000 / vbv-init=0.9 / crf-max=0.0 / crf-min=0.0 / ipratio=1.40 / pbratio=1.30 / aq-mode=2 / aq-strength=0.85 / cutree / zone-count=0 / no-strict-cbr / qg-size=32 / no-rc-grain / qpmax=69 / qpmin=0 / no-const-vbv / sar=1 / overscan=0 / videoformat=5 / range=0 / colorprim=1 / transfer=1 / colormatrix=1 / chromaloc=0 / display-window=0 / cll=0,0 / min-luma=0 / max-luma=1023 / log2-max-poc-lsb=8 / vui-timing-info / vui-hrd-info / slices=1 / no-opt-qp-pps / no-opt-ref-list-length-pps / no-multi-pass-opt-rps / scenecut-bias=0.05 / hist-threshold=0.03 / no-opt-cu-delta-qp / no-aq-motion / no-hdr10 / no-hdr10-opt / no-dhdr10-opt / no-idr-recovery-sei / analysis-reuse-level=0 / analysis-save-reuse-level=0 / analysis-load-reuse-level=0 / scale-factor=0 / refine-intra=0 / refine-inter=0 / refine-mv=1 / refine-ctu-distortion=0 / no-limit-sao / ctu-info=0 / no-lowpass-dct / refine-analysis-type=0 / copy-pic=1 / max-ausize-factor=1.0 / no-dynamic-refine / no-single-sei / no-hevc-aq / no-svt / no-field / qp-adaptation-range=1.00 / no-scenecut-aware-qpconformance-window-offsets / right=0 / bottom=0 / NTM4NzU= / decoder-max-rate=0
  35. Language                                 : English
  36. Default                                  : Yes
  37. Forced                                   : No
  38. Color range                              : Limited
  39. Color primaries                          : BT.709
  40. Transfer characteristics                 : BT.709
  41. Matrix coefficients                      : BT.709
  42. Audio #1
  43. ID                                       : 2
  44. Format                                   : MLP FBA
  45. Format/Info                              : Meridian Lossless Packing FBA
  46. Commercial name                          : Dolby TrueHD
  47. Codec ID                                 : A_TRUEHD
  48. Duration                                 : 1 h 54 min
  49. Bit rate mode                            : Variable
  50. Bit rate                                 : 3 206 kb/s
  51. Maximum bit rate                         : 5 154 kb/s
  52. Channel(s)                               : 6 channels
  53. Channel layout                           : L R C LFE Ls Rs
  54. Sampling rate                            : 96.0 kHz
  55. Frame rate                               : 1 200.000 FPS (80 SPF)
  56. Compression mode                         : Lossless
  57. Stream size                              : 2.57 GiB (29%)
  58. Title                                    : Korean Dolby TrueHD 5.1 @ 2.388 kbps
  59. Language                                 : Korean
  60. Default                                  : Yes
  61. Forced                                   : No
  62. Audio #2
  63. ID                                       : 3
  64. Format                                   : AC-3
  65. Format/Info                              : Audio Coding 3
  66. Commercial name                          : Dolby Digital
  67. Codec ID                                 : A_AC3
  68. Duration                                 : 1 h 54 min
  69. Bit rate mode                            : Constant
  70. Bit rate                                 : 640 kb/s
  71. Channel(s)                               : 6 channels
  72. Channel layout                           : L R C LFE Ls Rs
  73. Sampling rate                            : 48.0 kHz
  74. Frame rate                               : 31.250 FPS (1536 SPF)
  75. Compression mode                         : Lossy
  76. Stream size                              : 526 MiB (6%)
  77. Title                                    : Korean AC3 5.1-EX @ 640 kbps
  78. Language                                 : Korean
  79. Service kind                             : Complete Main
  80. Default                                  : No
  81. Forced                                   : No
  82. Text #1
  83. ID                                       : 4
  84. Format                                   : PGS
  85. Codec ID                                 : S_HDMV/PGS
  86. Codec ID/Info                            : Picture based subtitle format used on BDs/HD-DVDs
  87. Duration                                 : 1 h 50 min
  88. Bit rate                                 : 26.6 kb/s
  89. Count of elements                        : 2560
  90. Stream size                              : 21.0 MiB (0%)
  91. Title                                    : Cht/SUP  原盘繁体
  92. Language                                 : Chinese
  93. Default                                  : Yes
  94. Forced                                   : No
  95. Text #2
  96. ID                                       : 5
  97. Format                                   : PGS
  98. Codec ID                                 : S_HDMV/PGS
  99. Codec ID/Info                            : Picture based subtitle format used on BDs/HD-DVDs
  100. Duration                                 : 1 h 50 min
  101. Bit rate                                 : 27.5 kb/s
  102. Count of elements                        : 2558
  103. Stream size                              : 21.7 MiB (0%)
  104. Title                                    : Eng/SUP
  105. Language                                 : English
  106. Default                                  : No
  107. Forced                                   : No
  108. Menu
  109. 00:00:00.000                             : en:第 01 章
  110. 00:09:20.167                             : en:第 02 章
  111. 00:19:57.333                             : en:第 03 章
  112. 00:28:46.208                             : en:第 04 章
  113. 00:37:33.125                             : en:第 05 章
  114. 00:50:01.292                             : en:第 06 章
  115. 00:58:18.542                             : en:第 07 章
  116. 01:05:40.750                             : en:第 08 章
  117. 01:16:52.333                             : en:第 09 章
  118. 01:27:30.125                             : en:第 10 章
  119. 01:36:25.042                             : en:第 11 章
  120. 01:43:41.125                             : en:第 12 章
复制代码

















保举请利用qBittorrent,utorrent,transmission等标准BT软件下载!以获得最快速度。奉求保种!





回复

使用道具 举报

蓝光币
48
发表于 2022-7-31 22:34:24 | 显示全部楼层

楼主太厉害了!楼主,电影应该很好看我觉得蓝光电影网真是个好地方!
回复 支持 反对

使用道具 举报

懒得打字嘛,点击右侧快捷回复 【右侧内容,后台自定义】
您需要登录后才可以回帖 登录 | 立即加入

本版积分规则

Archiver|小黑屋| 蓝光电影网 |网站地图

Copyright © 2021 Comsenz Inc. Powered by 蓝光电影网

蓝光电影网

本站内容由用户自主分享和转载自互联网,转载目的在于传递更多信息,并不代表本网赞同其观点和对其真实性负责。

如有侵权、违反国家法律政策行为,请联系我们,我们会第一时间及时清除和处理!

举报反馈邮箱:[email protected]

快速回复 返回顶部 返回列表