找回密码

蓝光电影网

查看: 82|回复: 0

[剧情] 激情沸点[简繁英双语字幕].The.Hot.Spot.1990.BluRay.1080p.DTS-HD.MA5.1.x265.10bit-ALT 9.89GB

[复制链接]
蓝光币
7
发表于 2022-7-31 01:58:59 | 显示全部楼层 |阅读模式


◎标  题 豪情沸点
◎译  名 豪情热门
◎片  名 The Hot Spot
◎年  代 1990
◎产  地 美国
◎类  别 剧情 / 恋爱 / 惊悚 / 犯罪
◎语  言 英语
◎上映日期 1990-10-26(美国)
◎IMDb评分 6.4/10 (11522人评价)
◎IMDb链接 https://www.imdb.com/title/tt0099797/
◎豆瓣评分 6.6/10 (2520人评价)
◎豆瓣链接 https://movie.douban.com/subject/1293968/
◎片  长 130分钟
◎导  演 丹尼斯·霍珀 Dennis Hopper
◎编  剧 查尔斯·威廉姆斯 Charles Williams
       查尔斯·威廉姆斯 Charles Williams
◎演  员 唐·约翰逊 Don Johnson
       维吉妮娅·马德森 Virginia Madsen
       詹妮弗·康纳利 Jennifer Connelly
       查尔斯·马丁·史姑娘 Charles Martin Smith
       威廉姆·赛德勒 William Sadler
       杰里·哈德因 Jerry Hardin
       巴里·柯宾 Barry Corbin
       莱昂·里皮 Leon Rippy
       杰克·南斯 Jack Nance
       约翰·霍克 John Hawker
       James N. Harrell James N. Harrell
       Edith Mills Edith Mills
       乌利·史蒂格 Ueli Steiger
       Michael J. Sullivan Michael J. Sullivan
       Cary White Cary White
       Candace Neal Candace Neal
       帕蒂·约克 Patty York
◎标  签 詹妮弗·康纳利 / 美国 / 情色 / 珍妮弗-康纳利(Jennifer-Connelly) / 犯罪 / JenniferConnelly / 1990 / 美国电影
◎简  介
  一位流浪客来到德克萨斯一个州的小镇,却为当地人带来了一场情欲和罪行风暴,未几,他发现自己夹在两名女子和一个汉子之间,而且人命不保……
  1. ##### MediaInfo ######
  2. General
  3. Unique ID                                : 69843696651573562226633732680954987053 (0x348B681C3B907795C902885FD968C22D)
  4. Complete name                            : The.Hot.Spot.1990.BluRay.1080p.DTS-HD.MA5.1.x265.10bit-ALT.mkv
  5. Format                                   : Matroska
  6. Format version                           : Version 4
  7. File size                                : 9.89 GiB
  8. Duration                                 : 2 h 10 min
  9. Overall bit rate mode                    : Variable
  10. Overall bit rate                         : 10.9 Mb/s
  11. Encoded date                             : UTC 2022-07-28 07:39:50
  12. Writing application                      : mkvmerge v49.0.0 ('Sick Of Losing Soulmates') 64-bit
  13. Writing library                          : libebml v1.4.0 + libmatroska v1.6.1
  14. Video
  15. ID                                       : 1
  16. Format                                   : HEVC
  17. Format/Info                              : High Efficiency Video Coding
  18. Format profile                           : Main [email protected]@High
  19. Codec ID                                 : V_MPEGH/ISO/HEVC
  20. Duration                                 : 2 h 10 min
  21. Bit rate                                 : 8 573 kb/s
  22. Width                                    : 1 920 pixels
  23. Height                                   : 1 038 pixels
  24. Display aspect ratio                     : 1.85:1
  25. Frame rate mode                          : Constant
  26. Frame rate                               : 23.976 (24000/1001/53875) FPS
  27. Color space                              : YUV
  28. Chroma subsampling                       : 4:2:0
  29. Bit depth                                : 10 bits
  30. Bits/(Pixel*Frame)                       : 0.179
  31. Stream size                              : 7.81 GiB (79%)
  32. Title                                    : HEVC, [email protected]@High, 24/1.001 fps @ 8572 kbps
  33. Writing library                          : x265 3.5+36-1f2c8da77:[Windows][GCC 11.2.0][64 bit] 10bit
  34. Encoding settings                        : cpuid=538751111039 / frame-threads=4 / numa-pools=16 / wpp / no-pmode / no-pme / no-psnr / no-ssim / log-level=2 / input-csp=1 / input-res=1920x1038 / interlace=0 / total-frames=187529 / level-idc=51 / high-tier=1 / uhd-bd=0 / ref=5 / no-allow-non-conformance / no-repeat-headers / annexb / no-aud / no-eob / no-eos / no-hrd / info / hash=0 / no-temporal-layers / open-gop / min-keyint=24 / keyint=240 / gop-lookahead=0 / bframes=6 / b-adapt=2 / b-pyramid / bframe-bias=0 / rc-lookahead=40 / lookahead-slices=0 / NTM4NzU=uuDQuD2mJt9fsCf / scenecut=40 / no-hist-scenecut / radl=0 / no-splice / no-intra-refresh / ctu=32 / min-cu-size=8 / no-rect / no-amp / max-tu-size=32 / tu-inter-depth=3 / tu-intra-depth=3 / limit-tu=4 / rdoq-level=2 / dynamic-rd=0.00 / no-ssim-rd / signhide / no-tskip / nr-intra=0 / nr-inter=0 / no-constrained-intra / no-strong-intra-smoothing / max-merge=4 / limit-refs=1 / limit-modes / me=3 / subme=4 / merange=25 / temporal-mvp / no-frame-dup / no-hme / weightp / weightb / no-analyze-src-pics / deblock=-3:-3 / no-sao / no-sao-non-deblock / rd=6 / selective-sao=0 / no-early-skip / rskip / no-fast-intra / no-tskip-fast / no-cu-lossless / b-intra / no-splitrd-skip / rdpenalty=0 / psy-rd=2.00 / psy-rdoq=1.00 / no-rd-refine / no-lossless / cbqpoffs=-2 / crqpoffs=-2 / rc=crf / crf=18.5 / qcomp=0.65 / qpstep=4 / stats-write=0 / stats-read=0 / vbv-maxrate=80000 / vbv-bufsize=80000 / vbv-init=0.9 / min-vbv-fullness=50.0 / max-vbv-fullness=80.0 / crf-max=0.0 / crf-min=0.0 / ipratio=1.40 / pbratio=1.30 / aq-mode=2 / aq-strength=0.85 / cutree / zone-count=0 / no-strict-cbr / qg-size=32 / no-rc-grain / qpmax=69 / qpmin=0 / no-const-vbv / sar=1 / overscan=0 / videoformat=5 / range=0 / colorprim=1 / transfer=1 / colormatrix=1 / chromaloc=0 / display-window=0 / cll=0,0 / min-luma=0 / max-luma=1023 / log2-max-poc-lsb=8 / vui-timing-info / vui-hrd-info / slices=1 / no-opt-qp-pps / no-opt-ref-list-length-pps / no-multi-pass-opt-rps / scenecut-bias=0.05 / hist-threshold=0.03 / no-opt-cu-delta-qp / no-aq-motion / no-hdr10 / no-hdr10-opt / no-dhdr10-opt / no-idr-recovery-sei / analysis-reuse-level=0 / analysis-save-reuse-level=0 / analysis-load-reuse-level=0 / scale-factor=0 / refine-intra=0 / refine-inter=0 / refine-mv=1 / refine-ctu-distortion=0 / no-limit-sao / ctu-info=0 / no-lowpass-dct / refine-analysis-type=0 / copy-pic=1 / max-ausize-factor=1.0 / no-dynamic-refine / no-single-sei / no-hevc-aq / no-svt / no-field / qp-adaptation-range=1.00 / scenecut-aware-qp=0conformance-window-offsets / right=0 / bottom=0 / NTM4NzU= / decoder-max-rate=0 / no-vbv-live-multi-pass
  35. Language                                 : English
  36. Default                                  : Yes
  37. Forced                                   : No
  38. Color range                              : Limited
  39. Color primaries                          : BT.709
  40. Transfer characteristics                 : BT.709
  41. Matrix coefficients                      : BT.709
  42. Audio #1
  43. ID                                       : 2
  44. Format                                   : DTS XLL
  45. Format/Info                              : Digital Theater Systems
  46. Commercial name                          : DTS-HD Master Audio
  47. Codec ID                                 : A_DTS
  48. Duration                                 : 2 h 10 min
  49. Bit rate mode                            : Variable
  50. Bit rate                                 : 2 007 kb/s
  51. Channel(s)                               : 6 channels
  52. Channel layout                           : C L R Ls Rs LFE
  53. Sampling rate                            : 48.0 kHz
  54. Frame rate                               : 93.750 FPS (512 SPF)
  55. Bit depth                                : 16 bits
  56. Compression mode                         : Lossless
  57. Delay relative to video                  : 11 s 10 ms
  58. Stream size                              : 1.82 GiB (18%)
  59. Title                                    : English DTS-HD Master Audio 5.1 @ 2004 kbps
  60. Language                                 : English
  61. Default                                  : Yes
  62. Forced                                   : No
  63. Audio #2
  64. ID                                       : 3
  65. Format                                   : AC-3
  66. Format/Info                              : Audio Coding 3
  67. Commercial name                          : Dolby Digital
  68. Codec ID                                 : A_AC3
  69. Duration                                 : 2 h 10 min
  70. Bit rate mode                            : Constant
  71. Bit rate                                 : 192 kb/s
  72. Channel(s)                               : 2 channels
  73. Channel layout                           : L R
  74. Sampling rate                            : 48.0 kHz
  75. Frame rate                               : 31.250 FPS (1536 SPF)
  76. Compression mode                         : Lossy
  77. Delay relative to video                  : 11 s 10 ms
  78. Stream size                              : 179 MiB (2%)
  79. Title                                    : English Dolby Digital Audio 2.0 @ 192 kbps  Commentary
  80. Language                                 : English
  81. Service kind                             : Complete Main
  82. Default                                  : No
  83. Forced                                   : No
  84. Text #1
  85. ID                                       : 4
  86. Format                                   : PGS
  87. Codec ID                                 : S_HDMV/PGS
  88. Codec ID/Info                            : Picture based subtitle format used on BDs/HD-DVDs
  89. Duration                                 : 2 h 3 min
  90. Bit rate                                 : 19.5 kb/s
  91. Count of elements                        : 1850
  92. Stream size                              : 17.2 MiB (0%)
  93. Title                                    : Eng/SUP
  94. Language                                 : English
  95. Default                                  : No
  96. Forced                                   : No
  97. Text #2
  98. ID                                       : 5
  99. Format                                   : PGS
  100. Codec ID                                 : S_HDMV/PGS
  101. Codec ID/Info                            : Picture based subtitle format used on BDs/HD-DVDs
  102. Duration                                 : 2 h 4 min
  103. Bit rate                                 : 11.9 kb/s
  104. Count of elements                        : 1884
  105. Stream size                              : 10.6 MiB (0%)
  106. Title                                    : Chs/SUP  简体
  107. Language                                 : Chinese
  108. Default                                  : No
  109. Forced                                   : No
  110. Text #3
  111. ID                                       : 6
  112. Format                                   : PGS
  113. Codec ID                                 : S_HDMV/PGS
  114. Codec ID/Info                            : Picture based subtitle format used on BDs/HD-DVDs
  115. Duration                                 : 2 h 4 min
  116. Bit rate                                 : 12.2 kb/s
  117. Count of elements                        : 1884
  118. Stream size                              : 10.9 MiB (0%)
  119. Title                                    : Cht/SUP  繁体
  120. Language                                 : Chinese
  121. Default                                  : No
  122. Forced                                   : No
  123. Text #4
  124. ID                                       : 7
  125. Format                                   : PGS
  126. Codec ID                                 : S_HDMV/PGS
  127. Codec ID/Info                            : Picture based subtitle format used on BDs/HD-DVDs
  128. Duration                                 : 2 h 4 min
  129. Bit rate                                 : 22.6 kb/s
  130. Count of elements                        : 1884
  131. Stream size                              : 20.1 MiB (0%)
  132. Title                                    : Chs/SUP  简英双语
  133. Language                                 : Chinese
  134. Default                                  : Yes
  135. Forced                                   : No
  136. Text #5
  137. ID                                       : 8
  138. Format                                   : PGS
  139. Codec ID                                 : S_HDMV/PGS
  140. Codec ID/Info                            : Picture based subtitle format used on BDs/HD-DVDs
  141. Duration                                 : 2 h 4 min
  142. Bit rate                                 : 23.0 kb/s
  143. Count of elements                        : 1884
  144. Stream size                              : 20.5 MiB (0%)
  145. Title                                    : Cht/SUP  繁英双语
  146. Language                                 : Chinese
  147. Default                                  : No
  148. Forced                                   : No
  149. Menu
  150. 00:00:00.000                             : en:第 01 章
  151. 00:07:20.357                             : en:第 02 章
  152. 00:17:12.406                             : en:第 03 章
  153. 00:29:42.114                             : en:第 04 章
  154. 00:43:55.883                             : en:第 05 章
  155. 01:00:44.891                             : en:第 06 章
  156. 01:14:57.827                             : en:第 07 章
  157. 01:34:28.413                             : en:第 08 章
  158. 01:52:45.592                             : en:第 09 章
复制代码

















保举请利用qBittorrent,utorrent,transmission等标准BT软件下载!以获得最快速度。奉求保种!





回复

使用道具 举报

懒得打字嘛,点击右侧快捷回复 【右侧内容,后台自定义】
您需要登录后才可以回帖 登录 | 立即加入

本版积分规则

Archiver|小黑屋| 蓝光电影网 |网站地图

Copyright © 2021 Comsenz Inc. Powered by 蓝光电影网

蓝光电影网

本站内容由用户自主分享和转载自互联网,转载目的在于传递更多信息,并不代表本网赞同其观点和对其真实性负责。

如有侵权、违反国家法律政策行为,请联系我们,我们会第一时间及时清除和处理!

举报反馈邮箱:[email protected]

快速回复 返回顶部 返回列表