找回密码

蓝光电影网

查看: 14|回复: 0

[剧情] 夜奔[中文字幕/国语音轨].Fleeing.by.Night.2000.1080p.GL.WEB-DL.H264.AAC-TAGWEB 3.66GB

[复制链接]
蓝光币
7
发表于 2022-7-31 01:59:03 | 显示全部楼层 |阅读模式


◎标  题 夜奔
◎译  名 Fleeing by Night
◎年  代 2000
◎产  地 中国台湾 / 中国大陆
◎类  别 剧情 / 恋爱 / 同性
◎语  言 汉语普通话
◎上映日期 2000-10-14(中国台湾)
◎IMDb评分 7.5/10 (434人评价)
◎IMDb链接 https://www.imdb.com/title/tt0259744/
◎豆瓣评分 8.1/10 (26272人评价)
◎豆瓣链接 https://movie.douban.com/subject/1306465/
◎片  长 119分钟(韩国)
◎导  演 徐立功 Li-Kong Hsu
       尹祺 Chi Yin
◎编  剧 王蕙玲 Hui-Ling Wang
       王明霞 Ming-Hsia Wang
◎演  员 黄磊 Lei Huang
       刘若英 René Liu
       尹昭德 Chao-te Yin
       戴立忍 Leon Dai
       归亚蕾 Ya-lei Kuei
       王贵娥 Gui-e Wang
       姚鸿明 Hongming Yao
       王民益 Minyi Wang
       李连生 Liansheng Li
       舒耀瑄 Yaoxuan Shu
       徐立功 Li-Kong Hsu
       张世豪 Shi-Hao Chang
       李小婉 Xiaowan Li
       叶如芬 Ju-feng Yeh
       鲍比达 Chris Babida
       范宗沛 Cello Fan
       刘三郎 Saburo Liu
       谢泽 Ze Xie
       陈博文 Bo-Wen Chen
       宋军 Jun Song
       汤湘竹 Shiang-Chu Tang
       杜笃之 Du-Che Tu
       杜笃之 Du-Che Tu
       汤湘竹 Shiang-Chu Tang
       张世豪 Shi-Hao Chang
       姚鸿明 Hongming Yao
◎简  介
  1930年月,自幼在美国生活与进修的大提琴家徐少东(黄磊)返回祖国预备与素未蒙面但一向有手札来往的未婚妻英儿(刘若英)结婚。可是在随英儿在自家戏院看过昆曲《夜奔》并结识其主演林冲(尹昭德)后,徐少东的豪情天平起头更多地倾斜到林冲身上,但随后有关他与林冲的蜚语蜚语传出,顶不住世俗压力的他终极离别英儿回到美国。                                    
                                二战后,英儿赴美找到徐少东,二人谈起林冲为找徐少东的悲凉履用时,徐少东大白到他的心里会一向为英儿和林冲留有位置。
  1. ##### MediaInfo ######
  2. General
  3. Unique ID                                : 307984437091444416231242228986111142499 (0xE7B3A51D683468C96B24A0E982B12A63)
  4. Complete name                            : Fleeing.by.Night.2000.1080p.GL.WEB-DL.H264.AAC-TAGWEB.mkv
  5. Format                                   : Matroska
  6. Format version                           : Version 4
  7. File size                                : 3.66 GiB
  8. Duration                                 : 2 h 0 min
  9. Overall bit rate                         : 4 341 kb/s
  10. Encoded date                             : UTC 2022-03-25 02:10:21
  11. Writing application                      : mkvmerge v66.0.0 ('Josie') 64-bit
  12. Writing library                          : libebml v1.4.2 + libmatroska v1.6.4
  13. Video
  14. ID                                       : 1
  15. Format                                   : AVC
  16. Format/Info                              : Advanced Video Codec
  17. Format profile                           : [email protected]
  18. Format settings                          : CABAC / 5 Ref Frames
  19. Format settings, CABAC                   : Yes
  20. Format settings, Reference frames        : 5 frames
  21. Codec ID                                 : V_MPEG4/ISO/AVC
  22. Duration                                 : 2 h 0 min
  23. Bit rate                                 : 4 213 kb/s
  24. Width                                    : 1 920 pixels
  25. Height                                   : 1 080 pixels
  26. Display aspect ratio                     : 16:9
  27. Frame rate mode                          : Constant
  28. Frame rate                               : 24.000 FPS
  29. Color space                              : YUV
  30. Chroma subsampling                       : 4:2:0
  31. Bit depth                                : 8 bits
  32. Scan type                                : Progressive
  33. Bits/(Pixel*Frame)                       : 0.085
  34. Stream size                              : 3.55 GiB (97%)
  35. Default                                  : Yes
  36. Forced                                   : No
  37. Audio
  38. ID                                       : 2
  39. Format                                   : AAC LC
  40. Format/Info                              : Advanced Audio Codec Low Complexity
  41. Codec ID                                 : A_AAC-2
  42. Duration                                 : 2 h 0 min
  43. Bit rate                                 : 125 kb/s
  44. Channel(s)                               : 2 channels
  45. Channel layout                           : L R
  46. Sampling rate                            : 48.0 kHz
  47. Frame rate                               : 46.875 FPS (1024 SPF)
  48. Compression mode                         : Lossy
  49. Stream size                              : 108 MiB (3%)
  50. Default                                  : Yes
  51. Forced                                   : No
  52. Text #1
  53. ID                                       : 3
  54. Format                                   : UTF-8
  55. Codec ID                                 : S_TEXT/UTF8
  56. Codec ID/Info                            : UTF-8 Plain Text
  57. Duration                                 : 1 h 55 min
  58. Bit rate                                 : 23 b/s
  59. Count of elements                        : 946
  60. Stream size                              : 19.8 KiB (0%)
  61. Title                                    : Simplified Chinese
  62. Language                                 : Chinese
  63. Default                                  : Yes
  64. Forced                                   : No
  65. Text #2
  66. ID                                       : 4
  67. Format                                   : UTF-8
  68. Codec ID                                 : S_TEXT/UTF8
  69. Codec ID/Info                            : UTF-8 Plain Text
  70. Duration                                 : 1 h 55 min
  71. Bit rate                                 : 23 b/s
  72. Count of elements                        : 946
  73. Stream size                              : 19.8 KiB (0%)
  74. Title                                    : Traditional Chinese
  75. Language                                 : Chinese
  76. Default                                  : No
  77. Forced                                   : No
  78. Text #3
  79. ID                                       : 5
  80. Format                                   : UTF-8
  81. Codec ID                                 : S_TEXT/UTF8
  82. Codec ID/Info                            : UTF-8 Plain Text
  83. Duration                                 : 1 h 55 min
  84. Bit rate                                 : 30 b/s
  85. Count of elements                        : 947
  86. Stream size                              : 25.5 KiB (0%)
  87. Title                                    : English
  88. Language                                 : English
  89. Default                                  : No
  90. Forced                                   : No
  91. Text #4
  92. ID                                       : 6
  93. Format                                   : UTF-8
  94. Codec ID                                 : S_TEXT/UTF8
  95. Codec ID/Info                            : UTF-8 Plain Text
  96. Duration                                 : 1 h 55 min
  97. Bit rate                                 : 32 b/s
  98. Count of elements                        : 947
  99. Stream size                              : 27.6 KiB (0%)
  100. Title                                    : Indonesian
  101. Language                                 : Indonesian
  102. Default                                  : No
  103. Forced                                   : No
  104. Text #5
  105. ID                                       : 7
  106. Format                                   : UTF-8
  107. Codec ID                                 : S_TEXT/UTF8
  108. Codec ID/Info                            : UTF-8 Plain Text
  109. Duration                                 : 1 h 55 min
  110. Bit rate                                 : 85 b/s
  111. Count of elements                        : 946
  112. Stream size                              : 71.7 KiB (0%)
  113. Title                                    : Thai
  114. Language                                 : Thai
  115. Default                                  : No
  116. Forced                                   : No
  117. Text #6
  118. ID                                       : 8
  119. Format                                   : UTF-8
  120. Codec ID                                 : S_TEXT/UTF8
  121. Codec ID/Info                            : UTF-8 Plain Text
  122. Duration                                 : 1 h 55 min
  123. Bit rate                                 : 34 b/s
  124. Count of elements                        : 947
  125. Stream size                              : 29.2 KiB (0%)
  126. Title                                    : Spanish
  127. Language                                 : Spanish
  128. Default                                  : No
  129. Forced                                   : No
复制代码

















保举请利用qBittorrent,utorrent,transmission等标准BT软件下载!以获得最快速度。奉求保种!





回复

使用道具 举报

懒得打字嘛,点击右侧快捷回复 【右侧内容,后台自定义】
您需要登录后才可以回帖 登录 | 立即加入

本版积分规则

Archiver|小黑屋| 蓝光电影网 |网站地图

Copyright © 2021 Comsenz Inc. Powered by 蓝光电影网

蓝光电影网

本站内容由用户自主分享和转载自互联网,转载目的在于传递更多信息,并不代表本网赞同其观点和对其真实性负责。

如有侵权、违反国家法律政策行为,请联系我们,我们会第一时间及时清除和处理!

举报反馈邮箱:[email protected]

快速回复 返回顶部 返回列表