找回密码

蓝光电影网

查看: 16|回复: 0

[剧情] 仙剑风云[中文字幕/国语音轨].Xian.Jian.Feng.Yun.2022.1080p.WEB-DL.H265.DDP-TAGWEB 1.96GB

[复制链接]
蓝光币
7
发表于 2022-7-31 01:59:21 | 显示全部楼层 |阅读模式


◎标  题 仙剑风云
◎年  代 2022
◎产  地 中国大陆
◎类  别 行动 / 奇异 / 武侠 / 古装
◎语  言 汉语普通话
◎IMDb链接 https://www.imdb.com/title//
◎豆瓣链接 https://movie.douban.com/subject/35922021/
◎片  长 82分钟
◎演  员 陈浩民 Ho-Man Chan
       徐冬冬 Dongdong Xu
       熊欣欣 Xinxin Xiong
       张明显 Mingming Zhang
       姚宇 Yu Yao
       程琢 Zhuo Cheng
       王语嫚 Yuman Wang
       赖天祈
       梁小龙 Siu-Lung Leung
◎简  介
  百年前仙魔大战万兽屠城,仙剑门祖师爷与魔族首领幽皇大战七天七夜,终极以幽皇惨败逃走了结。                                    
                                百年后,张之霖成为仙剑新掌门,以能斩杀魔王的紫青双剑为饵引幽皇现身,却发现镇上邪尸横行,女人全都古怪失落。                                    
                                仙剑门御剑下山救济百姓,意外撞破魔族以蛊害人,幽皇吸食女人精魄练就神功的诡计。                                    
                                为斩尽邪魔拯救百姓,仙剑门布下天罡斗极阵迎战魔族入侵,张之霖携掌门夫人向复仇而来的幽皇倡议了最初的还击!
  1. ##### MediaInfo ######
  2. General
  3. Unique ID                                : 34941059336624541694630261629561541144 (0x1A49673B29A8C674889815D3D2CB1218)
  4. Complete name                            : Xian.Jian.Feng.Yun.2022.1080p.WEB-DL.H265.DDP-TAGWEB.mkv
  5. Format                                   : Matroska
  6. Format version                           : Version 4
  7. File size                                : 1.96 GiB
  8. Duration                                 : 1 h 21 min
  9. Overall bit rate                         : 3 462 kb/s
  10. Encoded date                             : UTC 2022-07-28 09:31:52
  11. Writing application                      : mkvmerge v68.0.0 ('The Curtain') 64-bit
  12. Writing library                          : libebml v1.4.2 + libmatroska v1.6.4
  13. Video
  14. ID                                       : 1
  15. Format                                   : HEVC
  16. Format/Info                              : High Efficiency Video Coding
  17. Format profile                           : [email protected]@Main
  18. Codec ID                                 : V_MPEGH/ISO/HEVC
  19. Duration                                 : 1 h 21 min
  20. Bit rate                                 : 3 174 kb/s
  21. Width                                    : 1 920 pixels
  22. Height                                   : 800 pixels
  23. Display aspect ratio                     : 2.40:1
  24. Frame rate mode                          : Constant
  25. Frame rate                               : 24.000 FPS
  26. Color space                              : YUV
  27. Chroma subsampling                       : 4:2:0
  28. Bit depth                                : 8 bits
  29. Bits/(Pixel*Frame)                       : 0.086
  30. Stream size                              : 1.80 GiB (92%)
  31. Language                                 : Chinese
  32. Default                                  : Yes
  33. Forced                                   : No
  34. Audio #1
  35. ID                                       : 2
  36. Format                                   : E-AC-3
  37. Format/Info                              : Enhanced AC-3
  38. Commercial name                          : Dolby Digital Plus
  39. Codec ID                                 : A_EAC3
  40. Duration                                 : 1 h 21 min
  41. Bit rate mode                            : Constant
  42. Bit rate                                 : 96.0 kb/s
  43. Channel(s)                               : 2 channels
  44. Channel layout                           : L R
  45. Sampling rate                            : 48.0 kHz
  46. Frame rate                               : 31.250 FPS (1536 SPF)
  47. Compression mode                         : Lossy
  48. Stream size                              : 55.8 MiB (3%)
  49. Language                                 : Chinese
  50. Service kind                             : Complete Main
  51. Default                                  : Yes
  52. Forced                                   : No
  53. Audio #2
  54. ID                                       : 3
  55. Format                                   : AAC LC
  56. Format/Info                              : Advanced Audio Codec Low Complexity
  57. Codec ID                                 : A_AAC-2
  58. Duration                                 : 1 h 21 min
  59. Bit rate                                 : 192 kb/s
  60. Channel(s)                               : 2 channels
  61. Channel layout                           : L R
  62. Sampling rate                            : 48.0 kHz
  63. Frame rate                               : 46.875 FPS (1024 SPF)
  64. Compression mode                         : Lossy
  65. Stream size                              : 110 MiB (5%)
  66. Language                                 : Chinese
  67. Default                                  : No
  68. Forced                                   : No
复制代码

















保举请利用qBittorrent,utorrent,transmission等标准BT软件下载!以获得最快速度。奉求保种!





回复

使用道具 举报

懒得打字嘛,点击右侧快捷回复 【右侧内容,后台自定义】
您需要登录后才可以回帖 登录 | 立即加入

本版积分规则

Archiver|小黑屋| 蓝光电影网 |网站地图

Copyright © 2021 Comsenz Inc. Powered by 蓝光电影网

蓝光电影网

本站内容由用户自主分享和转载自互联网,转载目的在于传递更多信息,并不代表本网赞同其观点和对其真实性负责。

如有侵权、违反国家法律政策行为,请联系我们,我们会第一时间及时清除和处理!

举报反馈邮箱:[email protected]

快速回复 返回顶部 返回列表