找回密码

蓝光电影网

查看: 11|回复: 0

[剧情] 七侠五义之五鼠闹东京[中文字幕/国语音轨].The.Invincible.Constable.1993.1080p.WEB-DL.H265.AAC-TAGWEB 3.42GB

[复制链接]
蓝光币
7
发表于 2022-7-31 01:59:32 | 显示全部楼层 |阅读模式


◎标  题 七侠五义之五鼠闹东京
◎译  名 御猫爱上锦毛鼠 / The Invincible Constable
◎片  名 七俠五義之五鼠鬧東京
◎年  代 1993
◎产  地 中国香港
◎类  别 武侠 / 古装
◎语  言 汉语普通话 / 粤语
◎上映日期 1993(中国香港)
◎IMDb评分 6/10 (7人评价)
◎IMDb链接 https://www.imdb.com/title/tt5825942/
◎豆瓣评分 6.2/10 (3034人评价)
◎豆瓣链接 https://movie.douban.com/subject/1461031/
◎片  长 92分钟
◎导  演 陈木川 Mu Chuan Chen
◎演  员 李志希 Benjamin Lee
       黄秋生 Anthony Wong Chau-Sang
       方中信 Alex Fong
       林炜 Wei Lin
       杨丽菁 Cynthia Khan
◎简  介
  南侠展昭(林炜 饰)获封“御猫”,五鼠之锦毛鼠白玉堂(李志希 饰)心里不服,潜入皇宫向展昭应战,成果虽中伏仍满身而退。天子有感白玉堂武功高强气概过人,赦宥其罪,包拯故意收复五鼠,令他们为朝廷效力,遂派遣展昭远赴陷空岛造访。另一方面,回到陷空岛的白玉堂被四个义兄:飞天鼠卢方、彻地鼠韩彰(郑浩南 饰)、穿山鼠徐庆(方中信 饰)、翻江鼠蒋平玩弄,又被女剑客丁月华反唇相稽,遂有志行侠于全国,远赴东京。展昭一路跟从白玉堂潜入庞太师府,助其大闹太师府。庞太师权欲熏心,派脱手下延揽五鼠意欲收为己用。卢方等四鼠有感包拯与展昭义薄云天,暗示归顺,惟独白玉堂倔强,偷走尚方宝剑而不愿就范……
  1. ##### MediaInfo ######
  2. General
  3. Complete name                            : The.Invincible.Constable.1993.1080p.WEB-DL.H265.AAC-TAGWEB.mp4
  4. Format                                   : MPEG-4
  5. Format profile                           : Base Media
  6. Codec ID                                 : isom (isom/iso2/mp41)
  7. File size                                : 3.42 GiB
  8. Duration                                 : 1 h 31 min
  9. Overall bit rate                         : 5 353 kb/s
  10. Writing application                      : Lavf59.16.100
  11. Video
  12. ID                                       : 1
  13. Format                                   : HEVC
  14. Format/Info                              : High Efficiency Video Coding
  15. Format profile                           : [email protected]@High
  16. Codec ID                                 : hev1
  17. Codec ID/Info                            : High Efficiency Video Coding
  18. Duration                                 : 1 h 31 min
  19. Source duration                          : 1 h 31 min
  20. Bit rate                                 : 5 007 kb/s
  21. Maximum bit rate                         : 5 222 kb/s
  22. Width                                    : 1 920 pixels
  23. Height                                   : 1 080 pixels
  24. Display aspect ratio                     : 16:9
  25. Frame rate mode                          : Constant
  26. Frame rate                               : 24.000 FPS
  27. Color space                              : YUV
  28. Chroma subsampling                       : 4:2:0
  29. Bit depth                                : 8 bits
  30. Bits/(Pixel*Frame)                       : 0.101
  31. Stream size                              : 3.20 GiB (94%)
  32. Source stream size                       : 3.33 GiB (98%)
  33. Codec configuration box                  : hvcC
  34. Audio
  35. ID                                       : 2
  36. Format                                   : AAC LC
  37. Format/Info                              : Advanced Audio Codec Low Complexity
  38. Codec ID                                 : mp4a-40-2
  39. Duration                                 : 1 h 31 min
  40. Bit rate mode                            : Constant
  41. Bit rate                                 : 125 kb/s
  42. Channel(s)                               : 2 channels
  43. Channel layout                           : L R
  44. Sampling rate                            : 44.1 kHz
  45. Frame rate                               : 43.066 FPS (1024 SPF)
  46. Compression mode                         : Lossy
  47. Stream size                              : 81.7 MiB (2%)
  48. Default                                  : Yes
  49. Alternate group                          : 1
复制代码

















保举请利用qBittorrent,utorrent,transmission等标准BT软件下载!以获得最快速度。奉求保种!





回复

使用道具 举报

懒得打字嘛,点击右侧快捷回复 【右侧内容,后台自定义】
您需要登录后才可以回帖 登录 | 立即加入

本版积分规则

Archiver|小黑屋| 蓝光电影网 |网站地图

Copyright © 2021 Comsenz Inc. Powered by 蓝光电影网

蓝光电影网

本站内容由用户自主分享和转载自互联网,转载目的在于传递更多信息,并不代表本网赞同其观点和对其真实性负责。

如有侵权、违反国家法律政策行为,请联系我们,我们会第一时间及时清除和处理!

举报反馈邮箱:[email protected]

快速回复 返回顶部 返回列表