找回密码

蓝光电影网

查看: 60|回复: 0

[剧情] 夜鹰 Nighthawks.1978.1080p.BluRay.x264-BiPOLAR 13.57GB

[复制链接]
蓝光币
886
发表于 2022-7-31 08:53:53 | 显示全部楼层 |阅读模式


◎标  题 夜鹰
◎译  名 纵情夜鹰(港)
◎片  名 Nighthawks
◎年  代 1978
◎产  地 英国
◎类  别 剧情 / 同性
◎语  言 英语
◎上映日期 1978
◎IMDb评分 6.1/10 (595人评价)
◎IMDb链接 https://www.imdb.com/title/tt0077993/
◎豆瓣链接 https://movie.douban.com/subject/1775420/
◎片  长 113 分钟
◎演  员 德里克·贾曼 Derek Jarman
◎简  介

  This could almost be a documentary, it's depiction of the gay male lifestyle is so realistic. A brilliant film unlike any others in the genre. No fantasies here, just honesty (though obviously made before AIDS was an all-too common fear).
  1. Video
  2. ID                                       : 1
  3. Format                                   : AVC
  4. Format/Info                              : Advanced Video Codec
  5. Format profile                           : [email protected]
  6. Format settings                          : CABAC / 5 Ref Frames
  7. Format settings, CABAC                   : Yes
  8. Format settings, Reference frames        : 5 frames
  9. Codec ID                                 : V_MPEG4/ISO/AVC
  10. Duration                                 : 1 h 53 min
  11. Bit rate                                 : 16.8 Mb/s
  12. Width                                    : 1 440 pixels
  13. Height                                   : 1 080 pixels
  14. Display aspect ratio                     : 4:3
  15. Frame rate mode                          : Constant
  16. Frame rate                               : 23.976 (24000/1001/189150) FPS
  17. Color space                              : YUV
  18. Chroma subsampling                       : 4:2:0
  19. Bit depth                                : 8 bits
  20. Scan type                                : Progressive
  21. Bits/(Pixel*Frame)                       : 0.449
  22. Stream size                              : 13.3 GiB (98%)
  23. Writing library                          : x264 core 164 r3095 baee400
  24. Encoding settings                        : cabac=1 / ref=5 / deblock=1:-3:-3 / analyse=0x3:0x133 / me=umh / subme=10 / psy=1 / psy_rd=1.00:0.15 / mixed_ref=1 / me_range=24 / chroma_me=1 / trellis=2 / 8x8dct=1 / cqm=0 / deadzone=21,11 / fast_pskip=1 / chroma_qp_offset=-3 / threads=18 / lookahead_threads=3 / sliced_threads=0 / nr=0 / decimate=1 / interlaced=0 / bluray_compat=0 / constrained_intra=0 / bframes=8 / b_pyramid=2 / b_adapt=2 / b_bias=0 / direct=3 / weightb=1 / open_gop=0 / weightp=2 / keyint=250 / keyint_min=23 / scenecut=40 / intra_refresh=0 / rc_lookahead=60 / rc=crf / mbtree=1 / crf=22.0 / qcomp=0.60 / qpmin=0 / qpmax=69 / qpstep=4 / ip_ratio=1.40 / aq=3:0.50
  25. Language                                 : English
  26. Default                                  : Yes
  27. Forced                                   : No
  28. Color range                              : Limited
  29. Matrix coefficients                      : BT.709

  30. Audio
  31. ID                                       : 2
  32. Format                                   : FLAC
  33. Format/Info                              : Free Lossless Audio Codec
  34. Codec ID                                 : A_FLAC
  35. Duration                                 : 1 h 53 min
  36. Bit rate mode                            : Variable
  37. Bit rate                                 : 366 kb/s
  38. Channel(s)                               : 2 channels
  39. Channel layout                           : L R
  40. Sampling rate                            : 48.0 kHz
  41. Frame rate                               : 11.719 FPS (4096 SPF)
  42. Bit depth                                : 16 bits
  43. Compression mode                         : Lossless
  44. Stream size                              : 297 MiB (2%)
  45. Writing library                          : libFLAC 1.2.1 (UTC 2007-09-17)
  46. Language                                 : English
  47. Default                                  : Yes
  48. Forced                                   : No

  49. Menu
  50. 00:00:00.000                             : en:00:00:00.000
  51. 00:03:30.210                             : en:00:03:30.210
  52. 00:14:22.278                             : en:00:14:22.278
  53. 00:23:00.379                             : en:00:23:00.379
  54. 00:35:20.285                             : en:00:35:20.285
  55. 00:47:34.685                             : en:00:47:34.685
  56. 01:01:07.622                             : en:01:01:07.622
  57. 01:13:28.029                             : en:01:13:28.029
  58. 01:26:59.506                             : en:01:26:59.506
  59. 01:37:06.279                             : en:01:37:06.279
  60. 01:45:23.400                             : en:01:45:23.400
  61. 01:51:42.487                             : en:01:51:42.487
复制代码





                                       
                                       

                                       
                                       
                                       




回复

使用道具 举报

懒得打字嘛,点击右侧快捷回复 【右侧内容,后台自定义】
您需要登录后才可以回帖 登录 | 立即加入

本版积分规则

Archiver|小黑屋| 蓝光电影网 |网站地图

Copyright © 2021 Comsenz Inc. Powered by 蓝光电影网

蓝光电影网

本站内容由用户自主分享和转载自互联网,转载目的在于传递更多信息,并不代表本网赞同其观点和对其真实性负责。

如有侵权、违反国家法律政策行为,请联系我们,我们会第一时间及时清除和处理!

举报反馈邮箱:[email protected]

快速回复 返回顶部 返回列表