找回密码

蓝光电影网

查看: 64|回复: 1

[剧情] 青春挽歌 Boys.Cry.2018.1080p.BluRay.x264-USURY 7.33GB

[复制链接]
蓝光币
886
发表于 2022-7-31 09:49:39 | 显示全部楼层 |阅读模式


◎标  题 青春挽歌
◎译  名 受够的地盘 / 充足的地盘 / Boys Cry
◎片  名 La terra dell'abbastanza
◎年  代 2018
◎产  地 意大利
◎类  别 剧情 / 犯罪
◎语  言 意大利语
◎上映日期 2018-02-17(柏林电影节) / 2018-06-07(意大利)
◎IMDb评分 6.8/10 (1721人评价)
◎IMDb链接 https://www.imdb.com/title/tt6892446/
◎豆瓣评分 6.5/10 (145人评价)
◎豆瓣链接 https://movie.douban.com/subject/30140568/
◎片  长 104分钟
◎导  演 达米亚诺·迪诺森佐 Damiano D'Innocenzo
       法比欧·迪诺森佐 Fabio D'Innocenzo
◎编  剧 达米亚诺·迪诺森佐 Damiano D'Innocenzo
       法比欧·迪诺森佐 Fabio D'Innocenzo
◎演  员 安德里亚·卡朋扎诺 Andrea Carpenzano
       马提奥·奥利维提 Matteo Olivetti
        Milena Mancini
       卢卡·津加雷蒂 Luca Zingaretti
       马西米利亚诺·托尔托拉 Massimiliano Tortora
       Michela Rossi Michela Rossi
       保罗·卡尼拉 Paolo Carnera
       马西莫·坎蒂尼·帕里尼 Massimo Cantini Parrini
  1. Video
  2. ID                                       : 1
  3. Format                                   : AVC
  4. Format/Info                              : Advanced Video Codec
  5. Format profile                           : [email protected]
  6. Format settings                          : CABAC / 5 Ref Frames
  7. Format settings, CABAC                   : Yes
  8. Format settings, Reference frames        : 5 frames
  9. Codec ID                                 : V_MPEG4/ISO/AVC
  10. Duration                                 : 1 h 34 min
  11. Bit rate                                 : 9 181 kb/s
  12. Width                                    : 1 920 pixels
  13. Height                                   : 804 pixels
  14. Display aspect ratio                     : 2.40:1
  15. Frame rate mode                          : Constant
  16. Frame rate                               : 24.000 FPS
  17. Color space                              : YUV
  18. Chroma subsampling                       : 4:2:0
  19. Bit depth                                : 8 bits
  20. Scan type                                : Progressive
  21. Bits/(Pixel*Frame)                       : 0.248
  22. Stream size                              : 6.08 GiB (83%)
  23. Writing library                          : x264 core 164 r3095 baee400
  24. Encoding settings                        : cabac=1 / ref=5 / deblock=1:-3:-3 / analyse=0x3:0x133 / me=umh / subme=10 / psy=1 / psy_rd=1.00:0.15 / mixed_ref=1 / me_range=24 / chroma_me=1 / trellis=2 / 8x8dct=1 / cqm=0 / deadzone=21,11 / fast_pskip=1 / chroma_qp_offset=-3 / threads=18 / lookahead_threads=3 / sliced_threads=0 / nr=0 / decimate=1 / interlaced=0 / bluray_compat=0 / constrained_intra=0 / bframes=8 / b_pyramid=2 / b_adapt=2 / b_bias=0 / direct=3 / weightb=1 / open_gop=0 / weightp=2 / keyint=250 / keyint_min=24 / scenecut=40 / intra_refresh=0 / rc_lookahead=60 / rc=crf / mbtree=1 / crf=17.0 / qcomp=0.60 / qpmin=0 / qpmax=69 / qpstep=4 / ip_ratio=1.40 / aq=3:0.60
  25. Language                                 : English
  26. Default                                  : Yes
  27. Forced                                   : No
  28. Color range                              : Limited
  29. Matrix coefficients                      : BT.709

  30. Audio
  31. ID                                       : 2
  32. Format                                   : DTS XLL
  33. Format/Info                              : Digital Theater Systems
  34. Commercial name                          : DTS-HD Master Audio
  35. Codec ID                                 : A_DTS
  36. Duration                                 : 1 h 34 min
  37. Bit rate mode                            : Variable
  38. Bit rate                                 : 1 867 kb/s
  39. Channel(s)                               : 6 channels
  40. Channel layout                           : C L R Ls Rs LFE
  41. Sampling rate                            : 48.0 kHz
  42. Frame rate                               : 93.750 FPS (512 SPF)
  43. Bit depth                                : 16 bits
  44. Compression mode                         : Lossless
  45. Stream size                              : 1.24 GiB (17%)
  46. Language                                 : Italian
  47. Default                                  : Yes
  48. Forced                                   : No

  49. Text #1
  50. ID                                       : 3
  51. Format                                   : UTF-8
  52. Codec ID                                 : S_TEXT/UTF8
  53. Codec ID/Info                            : UTF-8 Plain Text
  54. Duration                                 : 1 h 31 min
  55. Bit rate                                 : 42 b/s
  56. Count of elements                        : 952
  57. Stream size                              : 28.9 KiB (0%)
  58. Title                                    : English
  59. Language                                 : English
  60. Default                                  : Yes
  61. Forced                                   : Yes

  62. Text #2
  63. ID                                       : 4
  64. Format                                   : UTF-8
  65. Codec ID                                 : S_TEXT/UTF8
  66. Codec ID/Info                            : UTF-8 Plain Text
  67. Duration                                 : 1 h 29 min
  68. Bit rate                                 : 41 b/s
  69. Count of elements                        : 777
  70. Stream size                              : 27.1 KiB (0%)
  71. Title                                    : Dutch
  72. Language                                 : Dutch
  73. Default                                  : No
  74. Forced                                   : No

  75. Text #3
  76. ID                                       : 5
  77. Format                                   : UTF-8
  78. Codec ID                                 : S_TEXT/UTF8
  79. Codec ID/Info                            : UTF-8 Plain Text
  80. Duration                                 : 1 h 31 min
  81. Bit rate                                 : 43 b/s
  82. Count of elements                        : 778
  83. Stream size                              : 29.4 KiB (0%)
  84. Title                                    : French
  85. Language                                 : French
  86. Default                                  : No
  87. Forced                                   : No

  88. Text #4
  89. ID                                       : 6
  90. Format                                   : UTF-8
  91. Codec ID                                 : S_TEXT/UTF8
  92. Codec ID/Info                            : UTF-8 Plain Text
  93. Duration                                 : 1 h 29 min
  94. Bit rate                                 : 54 b/s
  95. Count of elements                        : 977
  96. Stream size                              : 35.3 KiB (0%)
  97. Title                                    : German
  98. Language                                 : German
  99. Default                                  : No
  100. Forced                                   : No

  101. Text #5
  102. ID                                       : 7
  103. Format                                   : UTF-8
  104. Codec ID                                 : S_TEXT/UTF8
  105. Codec ID/Info                            : UTF-8 Plain Text
  106. Duration                                 : 1 h 29 min
  107. Bit rate                                 : 55 b/s
  108. Count of elements                        : 741
  109. Stream size                              : 36.4 KiB (0%)
  110. Title                                    : Italian
  111. Language                                 : Italian
  112. Default                                  : No
  113. Forced                                   : No

  114. Text #6
  115. ID                                       : 8
  116. Format                                   : UTF-8
  117. Codec ID                                 : S_TEXT/UTF8
  118. Codec ID/Info                            : UTF-8 Plain Text
  119. Duration                                 : 1 h 31 min
  120. Bit rate                                 : 58 b/s
  121. Count of elements                        : 832
  122. Stream size                              : 39.1 KiB (0%)
  123. Title                                    : Italian SDH
  124. Language                                 : Italian
  125. Default                                  : No
  126. Forced                                   : No

  127. Text #7
  128. ID                                       : 9
  129. Format                                   : PGS
  130. Muxing mode                              : zlib
  131. Codec ID                                 : S_HDMV/PGS
  132. Codec ID/Info                            : Picture based subtitle format used on BDs/HD-DVDs
  133. Duration                                 : 1 h 31 min
  134. Bit rate                                 : 5 036 b/s
  135. Count of elements                        : 1664
  136. Stream size                              : 3.29 MiB (0%)
  137. Title                                    : Italian SDH
  138. Language                                 : Italian
  139. Default                                  : No
  140. Forced                                   : No

  141. Menu
  142. 00:00:00.000                             : en:00:00:00.000
  143. 00:08:14.667                             : en:00:08:14.667
  144. 00:16:39.708                             : en:00:16:39.708
  145. 00:25:40.208                             : en:00:25:40.208
  146. 00:34:44.833                             : en:00:34:44.833
  147. 00:42:17.125                             : en:00:42:17.125
  148. 00:49:44.833                             : en:00:49:44.833
  149. 00:59:10.375                             : en:00:59:10.375
  150. 01:06:59.333                             : en:01:06:59.333
  151. 01:13:39.667                             : en:01:13:39.667
  152. 01:22:44.333                             : en:01:22:44.333
  153. 01:31:57.500                             : en:01:31:57.500
复制代码






                                       
                                       

                                       
                                       
                                       




回复

使用道具 举报

蓝光币
19
发表于 3 天前 | 显示全部楼层
感谢楼主分享
回复 支持 反对

使用道具 举报

懒得打字嘛,点击右侧快捷回复 【右侧内容,后台自定义】
您需要登录后才可以回帖 登录 | 立即加入

本版积分规则

Archiver|小黑屋| 蓝光电影网 |网站地图

Copyright © 2021 Comsenz Inc. Powered by 蓝光电影网

蓝光电影网

本站内容由用户自主分享和转载自互联网,转载目的在于传递更多信息,并不代表本网赞同其观点和对其真实性负责。

如有侵权、违反国家法律政策行为,请联系我们,我们会第一时间及时清除和处理!

举报反馈邮箱:[email protected]

快速回复 返回顶部 返回列表