找回密码

蓝光电影网

查看: 31|回复: 0

[恐怖] 灵媒 The.Medium.2021.720p.BluRay.x264-USURY 4.22GB

[复制链接]
蓝光币
886
发表于 2022-7-31 09:52:40 | 显示全部楼层 |阅读模式


◎标  题 灵媒
◎译  名 萨满(台) / 凶灵祭(港) / 朗宗 / Rang Zong / Rang Song / Rangjong / The Medium / 랑종
◎片  名 ร่างทรง
◎年  代 2021
◎产  地 泰国 / 韩国
◎类  别 可骇
◎语  言 泰语
◎上映日期 2021-07-14(韩国)
◎IMDb评分 6.7/10 (4096人评价)
◎IMDb链接 https://www.imdb.com/title/tt13446168/
◎豆瓣评分 6.4/10 (107893人评价)
◎豆瓣链接 https://movie.douban.com/subject/35208823/
◎片  长 130分钟
◎导  演 班庄·比辛达拿刚 Banjong Pisanthanakun
◎编  剧 辰塔维·塔纳西维 Chantavit Dhanasevi
       罗泓轸 Hong-jin Na
       班庄·比辛达拿刚 Banjong Pisanthanakun
       Siwawut Sewatanon Siwawut Sewatanon
       Cha-won Choi Cha-won Choi
◎演  员 纳瑞拉·库尔蒙科尔佩特 Narilya Gulmongkolpech
       萨尼·乌托玛 Sawanee Utoomma
       邦松·纳卡普 Boonsong Nakphoo
       西拉尼·扬基蒂坎 Sirani Yankittikan
       亚沙卡·柴松 Yasaka Chaisorn
       罗泓轸 Hong-jin Na
       班庄·比辛达拿刚 Banjong Pisanthanakun
◎标  签 可骇 / 泰国 / 惊悚 / 灵异 / 伪记载片 / 2021 / 韩国 / 宗教
◎简  介

  影片报告了泰国伊桑地域是一个被萨满继续的地方,看似附身在一位家庭成员身上的女神,并不像她最初看起来那样善良。
  1. Video
  2. ID                                       : 1
  3. Format                                   : AVC
  4. Format/Info                              : Advanced Video Codec
  5. Format profile                           : [email protected]
  6. Format settings                          : CABAC / 9 Ref Frames
  7. Format settings, CABAC                   : Yes
  8. Format settings, Reference frames        : 9 frames
  9. Codec ID                                 : V_MPEG4/ISO/AVC
  10. Duration                                 : 2 h 10 min
  11. Bit rate                                 : 3 957 kb/s
  12. Width                                    : 1 280 pixels
  13. Height                                   : 694 pixels
  14. Display aspect ratio                     : 1.85:1
  15. Frame rate mode                          : Constant
  16. Frame rate                               : 23.976 (24000/1001/189150) FPS
  17. Color space                              : YUV
  18. Chroma subsampling                       : 4:2:0
  19. Bit depth                                : 8 bits
  20. Scan type                                : Progressive
  21. Bits/(Pixel*Frame)                       : 0.186
  22. Stream size                              : 3.62 GiB (86%)
  23. Writing library                          : x264 core 164 r3095 baee400
  24. Encoding settings                        : cabac=1 / ref=9 / deblock=1:-3:-3 / analyse=0x3:0x133 / me=umh / subme=10 / psy=1 / psy_rd=1.00:0.15 / mixed_ref=1 / me_range=24 / chroma_me=1 / trellis=2 / 8x8dct=1 / cqm=0 / deadzone=21,11 / fast_pskip=1 / chroma_qp_offset=-3 / threads=18 / lookahead_threads=3 / sliced_threads=0 / nr=0 / decimate=1 / interlaced=0 / bluray_compat=0 / constrained_intra=0 / bframes=8 / b_pyramid=2 / b_adapt=2 / b_bias=0 / direct=3 / weightb=1 / open_gop=0 / weightp=2 / keyint=250 / keyint_min=23 / scenecut=40 / intra_refresh=0 / rc_lookahead=60 / rc=crf / mbtree=1 / crf=17.0 / qcomp=0.60 / qpmin=0 / qpmax=69 / qpstep=4 / ip_ratio=1.40 / aq=3:0.60
  25. Language                                 : English
  26. Default                                  : Yes
  27. Forced                                   : No
  28. Color range                              : Limited
  29. Matrix coefficients                      : BT.709

  30. Audio
  31. ID                                       : 2
  32. Format                                   : AC-3
  33. Format/Info                              : Audio Coding 3
  34. Commercial name                          : Dolby Digital
  35. Codec ID                                 : A_AC3
  36. Duration                                 : 2 h 10 min
  37. Bit rate mode                            : Constant
  38. Bit rate                                 : 640 kb/s
  39. Channel(s)                               : 6 channels
  40. Channel layout                           : L R C LFE Ls Rs
  41. Sampling rate                            : 48.0 kHz
  42. Frame rate                               : 31.250 FPS (1536 SPF)
  43. Compression mode                         : Lossy
  44. Stream size                              : 599 MiB (14%)
  45. Language                                 : Thai
  46. Service kind                             : Complete Main
  47. Default                                  : Yes
  48. Forced                                   : No

  49. Text #1
  50. ID                                       : 3
  51. Format                                   : UTF-8
  52. Codec ID                                 : S_TEXT/UTF8
  53. Codec ID/Info                            : UTF-8 Plain Text
  54. Duration                                 : 2 h 9 min
  55. Bit rate                                 : 34 b/s
  56. Count of elements                        : 1103
  57. Stream size                              : 32.5 KiB (0%)
  58. Title                                    : English
  59. Language                                 : English
  60. Default                                  : Yes
  61. Forced                                   : Yes

  62. Text #2
  63. ID                                       : 4
  64. Format                                   : UTF-8
  65. Codec ID                                 : S_TEXT/UTF8
  66. Codec ID/Info                            : UTF-8 Plain Text
  67. Duration                                 : 2 h 1 min
  68. Bit rate                                 : 31 b/s
  69. Count of elements                        : 1371
  70. Stream size                              : 28.0 KiB (0%)
  71. Title                                    : Chinese (simplified)
  72. Language                                 : Chinese
  73. Default                                  : No
  74. Forced                                   : No

  75. Text #3
  76. ID                                       : 5
  77. Format                                   : UTF-8
  78. Codec ID                                 : S_TEXT/UTF8
  79. Codec ID/Info                            : UTF-8 Plain Text
  80. Duration                                 : 2 h 1 min
  81. Bit rate                                 : 29 b/s
  82. Count of elements                        : 1216
  83. Stream size                              : 26.4 KiB (0%)
  84. Title                                    : Chinese (traditional)
  85. Language                                 : Chinese
  86. Default                                  : No
  87. Forced                                   : No

  88. Text #4
  89. ID                                       : 6
  90. Format                                   : UTF-8
  91. Codec ID                                 : S_TEXT/UTF8
  92. Codec ID/Info                            : UTF-8 Plain Text
  93. Duration                                 : 2 h 1 min
  94. Bit rate                                 : 47 b/s
  95. Count of elements                        : 1404
  96. Stream size                              : 42.4 KiB (0%)
  97. Title                                    : German
  98. Language                                 : German
  99. Default                                  : No
  100. Forced                                   : No

  101. Text #5
  102. ID                                       : 7
  103. Format                                   : PGS
  104. Muxing mode                              : zlib
  105. Codec ID                                 : S_HDMV/PGS
  106. Codec ID/Info                            : Picture based subtitle format used on BDs/HD-DVDs
  107. Duration                                 : 2 h 1 min
  108. Bit rate                                 : 13.8 kb/s
  109. Count of elements                        : 2808
  110. Stream size                              : 12.0 MiB (0%)
  111. Title                                    : German
  112. Language                                 : German
  113. Default                                  : No
  114. Forced                                   : No

  115. Text #6
  116. ID                                       : 8
  117. Format                                   : UTF-8
  118. Codec ID                                 : S_TEXT/UTF8
  119. Codec ID/Info                            : UTF-8 Plain Text
  120. Duration                                 : 2 h 1 min
  121. Bit rate                                 : 33 b/s
  122. Count of elements                        : 1392
  123. Stream size                              : 29.9 KiB (0%)
  124. Title                                    : Indonesian
  125. Language                                 : Indonesian
  126. Default                                  : No
  127. Forced                                   : No

  128. Text #7
  129. ID                                       : 9
  130. Format                                   : UTF-8
  131. Codec ID                                 : S_TEXT/UTF8
  132. Codec ID/Info                            : UTF-8 Plain Text
  133. Duration                                 : 2 h 1 min
  134. Bit rate                                 : 37 b/s
  135. Count of elements                        : 1371
  136. Stream size                              : 33.0 KiB (0%)
  137. Title                                    : Malay
  138. Language                                 : Malay
  139. Default                                  : No
  140. Forced                                   : No

  141. Text #8
  142. ID                                       : 10
  143. Format                                   : UTF-8
  144. Codec ID                                 : S_TEXT/UTF8
  145. Codec ID/Info                            : UTF-8 Plain Text
  146. Duration                                 : 2 h 1 min
  147. Bit rate                                 : 39 b/s
  148. Count of elements                        : 1076
  149. Stream size                              : 35.1 KiB (0%)
  150. Title                                    : Spanish
  151. Language                                 : Spanish
  152. Default                                  : No
  153. Forced                                   : No

  154. Text #9
  155. ID                                       : 11
  156. Format                                   : UTF-8
  157. Codec ID                                 : S_TEXT/UTF8
  158. Codec ID/Info                            : UTF-8 Plain Text
  159. Duration                                 : 1 h 57 min
  160. Bit rate                                 : 33 b/s
  161. Count of elements                        : 470
  162. Stream size                              : 28.5 KiB (0%)
  163. Title                                    : Thai forced
  164. Language                                 : Thai
  165. Default                                  : No
  166. Forced                                   : No

  167. Menu
  168. 00:00:00.000                             : en:00:00:00.000
  169. 00:10:30.213                             : en:00:10:30.213
  170. 00:21:43.594                             : en:00:21:43.594
  171. 00:32:36.788                             : en:00:32:36.788
  172. 00:44:13.734                             : en:00:44:13.734
  173. 00:55:39.628                             : en:00:55:39.628
  174. 01:06:59.015                             : en:01:06:59.015
  175. 01:20:25.029                             : en:01:20:25.029
  176. 01:31:25.480                             : en:01:31:25.480
  177. 01:41:56.235                             : en:01:41:56.235
  178. 01:51:29.683                             : en:01:51:29.683
  179. 02:02:33.638                             : en:02:02:33.638
复制代码





                                       
                                       

                                       
                                       
                                       




回复

使用道具 举报

懒得打字嘛,点击右侧快捷回复 【右侧内容,后台自定义】
您需要登录后才可以回帖 登录 | 立即加入

本版积分规则

Archiver|小黑屋| 蓝光电影网 |网站地图

Copyright © 2021 Comsenz Inc. Powered by 蓝光电影网

蓝光电影网

本站内容由用户自主分享和转载自互联网,转载目的在于传递更多信息,并不代表本网赞同其观点和对其真实性负责。

如有侵权、违反国家法律政策行为,请联系我们,我们会第一时间及时清除和处理!

举报反馈邮箱:[email protected]

快速回复 返回顶部 返回列表