找回密码

蓝光电影网

查看: 25|回复: 0

[喜剧] 你笑我,但这是真的 You.Laugh.But.Its.True.2011.1080p.PCOK.WEBRip.AAC2.0.x264-NOGRP 4.50GB

[复制链接]
蓝光币
886
发表于 2022-7-31 10:08:42 | 显示全部楼层 |阅读模式


◎标  题 你笑我,但这是真的
◎译  名 真的你別笑
◎片  名 You Laugh But It's True
◎年  代 2011
◎产  地 美国
◎类  别 笑剧 / 记载片 / 脱口秀
◎语  言 英语
◎IMDb评分 7.2/10 (1145人评价)
◎IMDb链接 https://www.imdb.com/title/tt1671547/
◎豆瓣评分 8.5/10 (254人评价)
◎豆瓣链接 https://movie.douban.com/subject/21332484/
◎片  长 83分钟
◎编  剧 特雷弗·诺亚 Trevor Noah
◎演  员 特雷弗·诺亚 Trevor Noah
◎标  签 记载片 / TrevorNoah / 美国 / Comedy / 脱口秀 / 笑剧 / 南非 / Documentary
◎简  介

  初出茅庐的南非笑剧人特雷弗·诺亚克服重重疑问和恐惧,预备自己初次单人笑剧秀。
  1. Video
  2. ID                                       : 1
  3. Format                                   : AVC
  4. Format/Info                              : Advanced Video Codec
  5. Format profile                           : [email protected]
  6. Format settings                          : CABAC / 4 Ref Frames
  7. Format settings, CABAC                   : Yes
  8. Format settings, Reference frames        : 4 frames
  9. Codec ID                                 : V_MPEG4/ISO/AVC
  10. Duration                                 : 1 h 23 min
  11. Bit rate                                 : 7 814 kb/s
  12. Width                                    : 1 920 pixels
  13. Height                                   : 1 080 pixels
  14. Display aspect ratio                     : 16:9
  15. Frame rate mode                          : Constant
  16. Frame rate                               : 23.976 (24000/1001/189150) FPS
  17. Color space                              : YUV
  18. Chroma subsampling                       : 4:2:0
  19. Bit depth                                : 8 bits
  20. Scan type                                : Progressive
  21. Bits/(Pixel*Frame)                       : 0.157
  22. Stream size                              : 4.44 GiB (99%)
  23. Writing library                          : x264 core 160 r3011 cde9a93
  24. Encoding settings                        : cabac=1 / ref=4 / deblock=1:0:0 / analyse=0x3:0x113 / me=umh / subme=7 / psy=1 / psy_rd=0.00:0.00 / mixed_ref=1 / me_range=16 / chroma_me=1 / trellis=1 / 8x8dct=1 / cqm=0 / deadzone=21,11 / fast_pskip=0 / chroma_qp_offset=0 / threads=34 / lookahead_threads=5 / sliced_threads=0 / nr=0 / decimate=1 / interlaced=0 / bluray_compat=0 / constrained_intra=0 / bframes=16 / b_pyramid=2 / b_adapt=1 / b_bias=0 / direct=1 / weightb=1 / open_gop=0 / weightp=2 / keyint=48 / keyint_min=25 / scenecut=0 / intra_refresh=0 / rc_lookahead=40 / rc=2pass / mbtree=1 / bitrate=7814 / ratetol=1.0 / qcomp=0.60 / qpmin=10 / qpmax=51 / qpstep=4 / cplxblur=20.0 / qblur=0.5 / vbv_maxrate=7814 / vbv_bufsize=7814 / nal_hrd=none / filler=0 / ip_ratio=1.41 / aq=1:1.00
  25. Default                                  : Yes
  26. Forced                                   : No
  27. Audio
  28. ID                                       : 2
  29. Format                                   : AAC LC
  30. Format/Info                              : Advanced Audio Codec Low Complexity
  31. Codec ID                                 : A_AAC-2
  32. Duration                                 : 1 h 23 min
  33. Bit rate                                 : 96.0 kb/s
  34. Channel(s)                               : 2 channels
  35. Channel layout                           : L R
  36. Sampling rate                            : 48.0 kHz
  37. Frame rate                               : 46.875 FPS (1024 SPF)
  38. Compression mode                         : Lossy
  39. Stream size                              : 57.5 MiB (1%)
  40. Language                                 : English
  41. Default                                  : Yes
  42. Forced                                   : No
  43. Text
  44. ID                                       : 3
  45. Format                                   : UTF-8
  46. Codec ID                                 : S_TEXT/UTF8
  47. Codec ID/Info                            : UTF-8 Plain Text
  48. Duration                                 : 1 h 23 min
  49. Bit rate                                 : 113 b/s
  50. Frame rate                               : 0.377 FPS
  51. Count of elements                        : 1878
  52. Stream size                              : 68.9 KiB (0%)
  53. Language                                 : English
  54. Default                                  : Yes
  55. Forced                                   : No
复制代码






                                       
                                       

                                       
                                       
                                       




回复

使用道具 举报

懒得打字嘛,点击右侧快捷回复 【右侧内容,后台自定义】
您需要登录后才可以回帖 登录 | 立即加入

本版积分规则

Archiver|小黑屋| 蓝光电影网 |网站地图

Copyright © 2021 Comsenz Inc. Powered by 蓝光电影网

蓝光电影网

本站内容由用户自主分享和转载自互联网,转载目的在于传递更多信息,并不代表本网赞同其观点和对其真实性负责。

如有侵权、违反国家法律政策行为,请联系我们,我们会第一时间及时清除和处理!

举报反馈邮箱:[email protected]

快速回复 返回顶部 返回列表