找回密码

蓝光电影网

查看: 19|回复: 0

[其他] 奥逊·威尔斯的眼睛 The.Eyes.Of.Orson.Welles.2018.1080p.AMZN.WEBRip.DDP2.0.x264-squalor 5.89GB

[复制链接]
蓝光币
886
发表于 2022-7-31 17:58:32 | 显示全部楼层 |阅读模式


◎标  题 奥逊·威尔斯的眼睛
◎译  名 奥逊威尔斯之眼(港) / 奥森威尔斯:匠心绘眼(台) / 奥逊·威尔斯:大师视野
◎片  名 The Eyes of Orson Welles
◎年  代 2018
◎产  地 英国
◎类  别 记载片
◎语  言 英语
◎上映日期 2018-05-09(法国)
◎IMDb评分 6.8/10 (867人评价)
◎IMDb链接 https://www.imdb.com/title/tt8371772/
◎豆瓣评分 7.3/10 (202人评价)
◎豆瓣链接 https://movie.douban.com/subject/30181405/
◎片  长 110分钟
◎导  演 马克·卡曾斯 Mark Cousins
◎编  剧 马克·卡曾斯 Mark Cousins
◎演  员 马克·卡曾斯 Mark Cousins
       贝翠斯·威尔斯 Beatrice Welles
       奥逊·威尔斯 Orson Welles
       迈克尔·摩尔 Michael Moore
◎简  介

  具有欣赏奥逊·威尔斯上百幅私人画作的独家权限,导演Mark Cousins深入研讨了这位传奇演员,导演奥逊威尔斯的视觉天下,来展现他不为人知的作为艺术家的一面—经过他的双眼,用他的手来素描,用他的笔刷来绘画。由Micheal Moore监制,《奥逊威尔斯的眼》形象活泼地展现了这位20世纪才华横溢的表演者的豪情、政治看法和蔼力,同时也摸索了,在威尔斯去世三十多年后的明天,他的精神若何在Trump时代仍能引发共鸣。
  1. Video
  2. ID                                       : 1
  3. Format                                   : AVC
  4. Format/Info                              : Advanced Video Codec
  5. Format profile                           : [email protected]
  6. Format settings                          : CABAC / 4 Ref Frames
  7. Format settings, CABAC                   : Yes
  8. Format settings, Reference frames        : 4 frames
  9. Codec ID                                 : V_MPEG4/ISO/AVC
  10. Duration                                 : 1 h 50 min
  11. Bit rate mode                            : Constant
  12. Bit rate                                 : 7 442 kb/s
  13. Nominal bit rate                         : 10 000 kb/s
  14. Width                                    : 1 920 pixels
  15. Height                                   : 1 080 pixels
  16. Display aspect ratio                     : 16:9
  17. Frame rate mode                          : Constant
  18. Frame rate                               : 25.000 FPS
  19. Color space                              : YUV
  20. Chroma subsampling                       : 4:2:0
  21. Bit depth                                : 8 bits
  22. Scan type                                : Progressive
  23. Bits/(Pixel*Frame)                       : 0.144
  24. Stream size                              : 5.72 GiB (97%)
  25. Default                                  : Yes
  26. Forced                                   : No
  27. Color range                              : Limited
  28. Color primaries                          : BT.709
  29. Transfer characteristics                 : BT.709
  30. Matrix coefficients                      : BT.709
  31. Audio
  32. ID                                       : 2
  33. Format                                   : E-AC-3
  34. Format/Info                              : Enhanced AC-3
  35. Commercial name                          : Dolby Digital Plus
  36. Codec ID                                 : A_EAC3
  37. Duration                                 : 1 h 50 min
  38. Bit rate mode                            : Constant
  39. Bit rate                                 : 224 kb/s
  40. Channel(s)                               : 2 channels
  41. Channel layout                           : L R
  42. Sampling rate                            : 48.0 kHz
  43. Frame rate                               : 31.250 FPS (1536 SPF)
  44. Compression mode                         : Lossy
  45. Stream size                              : 176 MiB (3%)
  46. Language                                 : English
  47. Service kind                             : Complete Main
  48. Default                                  : Yes
  49. Forced                                   : No
  50. Text
  51. ID                                       : 3
  52. Format                                   : UTF-8
  53. Codec ID                                 : S_TEXT/UTF8
  54. Codec ID/Info                            : UTF-8 Plain Text
  55. Duration                                 : 1 h 49 min
  56. Bit rate                                 : 80 b/s
  57. Frame rate                               : 0.221 FPS
  58. Count of elements                        : 1451
  59. Stream size                              : 64.5 KiB (0%)
  60. Language                                 : English
  61. Default                                  : No
  62. Forced                                   : No
复制代码







                                       
                                       

                                       
                                       
                                       




回复

使用道具 举报

懒得打字嘛,点击右侧快捷回复 【右侧内容,后台自定义】
您需要登录后才可以回帖 登录 | 立即加入

本版积分规则

Archiver|小黑屋| 蓝光电影网 |网站地图

Copyright © 2021 Comsenz Inc. Powered by 蓝光电影网

蓝光电影网

本站内容由用户自主分享和转载自互联网,转载目的在于传递更多信息,并不代表本网赞同其观点和对其真实性负责。

如有侵权、违反国家法律政策行为,请联系我们,我们会第一时间及时清除和处理!

举报反馈邮箱:[email protected]

快速回复 返回顶部 返回列表