找回密码

蓝光电影网

查看: 21|回复: 0

[剧情] 野兽之灵 Soul.of.a.Beast.2021.1080p.WEBRip.AAC2.0.x264-KUCHU 4.61GB

[复制链接]
蓝光币
886
发表于 2022-7-31 22:39:34 | 显示全部楼层 |阅读模式


◎标  题 野兽之灵
◎片  名 Soul of a Beast
◎年  代 2021
◎产  地 瑞士
◎类  别 剧情
◎语  言 德语 / 法语 / 日语
◎上映日期 2021(洛迦诺电影节)
◎IMDb评分 6.1/10 (114人评价)
◎IMDb链接 https://www.imdb.com/title/tt10825610/
◎豆瓣链接 https://movie.douban.com/subject/35072574/
◎片  长 110分钟
◎演  员 艾拉·朗夫 Ella Rumpf
◎简  介

  Young father Gabriel takes care alone of his son. When he falls in love with enigmatic Corey, a state of emergency is declared - wild animals are on the run and life becomes utterly existential.
  1. Video
  2. ID                                       : 1
  3. Format                                   : AVC
  4. Format/Info                              : Advanced Video Codec
  5. Format profile                           : [email protected]
  6. Format settings                          : CABAC / 4 Ref Frames
  7. Format settings, CABAC                   : Yes
  8. Format settings, Reference frames        : 4 frames
  9. Codec ID                                 : V_MPEG4/ISO/AVC
  10. Duration                                 : 1 h 50 min
  11. Bit rate                                 : 5 671 kb/s
  12. Width                                    : 1 920 pixels
  13. Height                                   : 1 080 pixels
  14. Display aspect ratio                     : 16:9
  15. Frame rate mode                          : Constant
  16. Frame rate                               : 24.000 FPS
  17. Color space                              : YUV
  18. Chroma subsampling                       : 4:2:0
  19. Bit depth                                : 8 bits
  20. Scan type                                : Progressive
  21. Bits/(Pixel*Frame)                       : 0.114
  22. Stream size                              : 4.36 GiB (95%)
  23. Default                                  : Yes
  24. Forced                                   : No
  25. Audio
  26. ID                                       : 2
  27. Format                                   : AAC LC
  28. Format/Info                              : Advanced Audio Codec Low Complexity
  29. Codec ID                                 : A_AAC-2
  30. Duration                                 : 1 h 50 min
  31. Bit rate                                 : 317 kb/s
  32. Channel(s)                               : 2 channels
  33. Channel layout                           : L R
  34. Sampling rate                            : 48.0 kHz
  35. Frame rate                               : 46.875 FPS (1024 SPF)
  36. Compression mode                         : Lossy
  37. Stream size                              : 250 MiB (5%)
  38. Language                                 : Multiple languages
  39. Default                                  : Yes
  40. Forced                                   : No
  41. Text
  42. ID                                       : 3
  43. Format                                   : UTF-8
  44. Codec ID                                 : S_TEXT/UTF8
  45. Codec ID/Info                            : UTF-8 Plain Text
  46. Duration                                 : 1 h 39 min
  47. Bit rate                                 : 18 b/s
  48. Frame rate                               : 0.092 FPS
  49. Count of elements                        : 549
  50. Stream size                              : 13.5 KiB (0%)
  51. Language                                 : English
  52. Default                                  : Yes
  53. Forced                                   : No
复制代码






                                       
                                       

                                       
                                       
                                       




回复

使用道具 举报

懒得打字嘛,点击右侧快捷回复 【右侧内容,后台自定义】
您需要登录后才可以回帖 登录 | 立即加入

本版积分规则

Archiver|小黑屋| 蓝光电影网 |网站地图

Copyright © 2021 Comsenz Inc. Powered by 蓝光电影网

蓝光电影网

本站内容由用户自主分享和转载自互联网,转载目的在于传递更多信息,并不代表本网赞同其观点和对其真实性负责。

如有侵权、违反国家法律政策行为,请联系我们,我们会第一时间及时清除和处理!

举报反馈邮箱:4k1080[email protected]

快速回复 返回顶部 返回列表