找回密码

蓝光电影网

查看: 39|回复: 1

[奇幻] 三宝磨坊 The.Day.the.Earth.Froze.1959.FINNISH.1080p.BluRay.x264.DD5.1-NOGRP 16.08GB

[复制链接]
蓝光币
886
发表于 2022-7-31 23:02:51 | 显示全部楼层 |阅读模式


◎标  题 三宝磨坊
◎译  名 The Day the Earth Froze / Сампо
◎片  名 Sampo
◎年  代 1959
◎产  地 芬兰 / 苏联
◎类  别 奇异 / 冒险
◎语  言 俄语
◎上映日期 1959-10-16
◎IMDb评分 3.9/10 (1269人评价)
◎IMDb链接 https://www.imdb.com/title/tt0053240/
◎豆瓣链接 https://movie.douban.com/subject/3161394/
◎片  长 Argentina: 90 分钟
◎导  演 亚历山大·普图什科 Aleksandr Ptushko
◎编  剧 Grigori Yagdfeld Grigori Yagdfeld
       Viktor Vitkovich Viktor Vitkovich
        Elias Lönnrot
◎演  员 瓦连京·布雷列耶夫 Valentin Bryleyev
       亚历山大·马切列特 Aleksandr Macheret
       阿达·伏依茨克 Ada Vojtsik
       Viktor Uralsky Viktor Uralsky
       Urho Somersalmi Urho Somersalmi
       米哈伊尔·特里亚诺夫斯基 Mikhail Troyanovsky
       乔治·米利亚尔 Georgiy Millyar
       Marvin Miller Marvin Miller
       Lennart Lauramaa Lennart Lauramaa
       Eve Kivi Eve Kivi
       里斯托·奥尔科 Risto Orko
       Gennadi Tsekavyj Gennadi Tsekavyj
       Viktor Yakushev Viktor Yakushev
       Holger Harrivirta Holger Harrivirta
       Lev Milchin Lev Milchin
       Ritva Karpio Ritva Karpio
       Holger Harrivirta Holger Harrivirta
◎简  介

  Based on Finnish mythology, this movie traces the exploits of Lemminkainen as he woos the fair Annikki and battles the evil witch Louhi. Louhi kidnaps Annikki to compel her father to build for her a Sampo, a magical device that creates salt, grain, and gold. 77mi.cc When Lemminkainen tries (and fails) to recover the Sampo, Louhi steals the sun, plunging the world into frozen da...
  1. Video
  2. ID                                       : 1
  3. Format                                   : AVC
  4. Format/Info                              : Advanced Video Codec
  5. Format profile                           : [email protected]
  6. Format settings                          : CABAC / 5 Ref Frames
  7. Format settings, CABAC                   : Yes
  8. Format settings, Reference frames        : 5 frames
  9. Codec ID                                 : V_MPEG4/ISO/AVC
  10. Duration                                 : 1 h 30 min
  11. Bit rate                                 : 24.1 Mb/s
  12. Width                                    : 1 920 pixels
  13. Height                                   : 804 pixels
  14. Display aspect ratio                     : 2.40:1
  15. Frame rate mode                          : Constant
  16. Frame rate                               : 24.000 FPS
  17. Color space                              : YUV
  18. Chroma subsampling                       : 4:2:0
  19. Bit depth                                : 8 bits
  20. Scan type                                : Progressive
  21. Bits/(Pixel*Frame)                       : 0.650
  22. Stream size                              : 15.2 GiB (94%)
  23. Writing library                          : x264 core 164 r3094+49M
  24. Encoding settings                        : cabac=1 / ref=5 / deblock=1:-3:-3 / analyse=0x3:0x113 / me=umh / subme=10 / psy=1 / fade_compensate=0.00 / psy_rd=1.05:0.00 / mixed_ref=1 / me_range=32 / chroma_me=1 / trellis=2 / 8x8dct=1 / cqm=0 / deadzone=21,11 / fast_pskip=0 / chroma_qp_offset=-2 / threads=18 / lookahead_threads=4 / sliced_threads=0 / nr=0 / decimate=0 / interlaced=0 / bluray_compat=0 / constrained_intra=0 / fgo=0 / bframes=14 / b_pyramid=2 / b_adapt=2 / b_bias=0 / direct=3 / weightb=1 / open_gop=0 / weightp=2 / keyint=250 / keyint_min=24 / scenecut=40 / intra_refresh=0 / rc_lookahead=60 / rc=crf / mbtree=0 / crf=17.8000 / qcomp=0.60 / qpmin=0:0:0 / qpmax=69:69:69 / qpstep=4 / vbv_maxrate=62500 / vbv_bufsize=78125 / crf_max=0.0 / nal_hrd=none / filler=0 / ip_ratio=1.40 / pb_ratio=1.30 / aq=3:0.70 / aq-sensitivity=10.00 / aq-factor=1.00:1.00:1.00 / aq2=0 / aq3=0
  25. Default                                  : Yes
  26. Forced                                   : No
  27. Color range                              : Limited
  28. Color primaries                          : BT.709
  29. Transfer characteristics                 : BT.709
  30. Matrix coefficients                      : BT.709
  31. Audio #1
  32. ID                                       : 2
  33. Format                                   : E-AC-3
  34. Format/Info                              : Enhanced AC-3
  35. Commercial name                          : Dolby Digital Plus
  36. Codec ID                                 : A_EAC3
  37. Duration                                 : 1 h 30 min
  38. Bit rate mode                            : Constant
  39. Bit rate                                 : 1 024 kb/s
  40. Channel(s)                               : 6 channels
  41. Channel layout                           : L R C LFE Ls Rs
  42. Sampling rate                            : 48.0 kHz
  43. Frame rate                               : 31.250 FPS (1536 SPF)
  44. Compression mode                         : Lossy
  45. Stream size                              : 661 MiB (4%)
  46. Language                                 : Finnish
  47. Service kind                             : Complete Main
  48. Default                                  : Yes
  49. Forced                                   : No
  50. Audio #2
  51. ID                                       : 3
  52. Format                                   : AC-3
  53. Format/Info                              : Audio Coding 3
  54. Commercial name                          : Dolby Digital
  55. Codec ID                                 : A_AC3
  56. Duration                                 : 1 h 30 min
  57. Bit rate mode                            : Constant
  58. Bit rate                                 : 384 kb/s
  59. Channel(s)                               : 2 channels
  60. Channel layout                           : L R
  61. Sampling rate                            : 48.0 kHz
  62. Frame rate                               : 31.250 FPS (1536 SPF)
  63. Compression mode                         : Lossy
  64. Stream size                              : 248 MiB (2%)
  65. Title                                    : Commentary by Steve Bissette
  66. Language                                 : English
  67. Service kind                             : Commentary
  68. Default                                  : No
  69. Forced                                   : No
  70. Text #1
  71. ID                                       : 4
  72. Format                                   : UTF-8
  73. Codec ID                                 : S_TEXT/UTF8
  74. Codec ID/Info                            : UTF-8 Plain Text
  75. Duration                                 : 1 h 29 min
  76. Bit rate                                 : 23 b/s
  77. Frame rate                               : 0.084 FPS
  78. Count of elements                        : 453
  79. Stream size                              : 15.7 KiB (0%)
  80. Language                                 : English
  81. Default                                  : No
  82. Forced                                   : No
  83. Text #2
  84. ID                                       : 5
  85. Format                                   : UTF-8
  86. Codec ID                                 : S_TEXT/UTF8
  87. Codec ID/Info                            : UTF-8 Plain Text
  88. Duration                                 : 1 h 27 min
  89. Bit rate                                 : 22 b/s
  90. Frame rate                               : 0.090 FPS
  91. Count of elements                        : 472
  92. Stream size                              : 14.2 KiB (0%)
  93. Title                                    : SDH
  94. Language                                 : Finnish
  95. Default                                  : No
  96. Forced                                   : No
  97. Text #3
  98. ID                                       : 6
  99. Format                                   : UTF-8
  100. Codec ID                                 : S_TEXT/UTF8
  101. Codec ID/Info                            : UTF-8 Plain Text
  102. Duration                                 : 1 h 29 min
  103. Bit rate                                 : 23 b/s
  104. Frame rate                               : 0.081 FPS
  105. Count of elements                        : 438
  106. Stream size                              : 15.2 KiB (0%)
  107. Language                                 : Swedish
  108. Default                                  : No
  109. Forced                                   : No
  110. Text #4
  111. ID                                       : 7
  112. Format                                   : UTF-8
  113. Codec ID                                 : S_TEXT/UTF8
  114. Codec ID/Info                            : UTF-8 Plain Text
  115. Duration                                 : 1 h 29 min
  116. Bit rate                                 : 38 b/s
  117. Frame rate                               : 0.081 FPS
  118. Count of elements                        : 437
  119. Stream size                              : 25.3 KiB (0%)
  120. Language                                 : Russian
  121. Default                                  : No
  122. Forced                                   : No
  123. Menu
  124. 00:00:00.000                             : en:Chapter 01
  125. 00:10:40.583                             : en:Chapter 02
  126. 00:21:08.125                             : en:Chapter 03
  127. 00:36:44.333                             : en:Chapter 04
  128. 00:43:09.500                             : en:Chapter 05
  129. 00:54:42.333                             : en:Chapter 06
  130. 01:03:46.458                             : en:Chapter 07
  131. 01:13:50.958                             : en:Chapter 08
复制代码




                                       
                                       

                                       
                                       
                                       




回复

使用道具 举报

蓝光币
132
发表于 2022-8-1 06:16:14 | 显示全部楼层

楼主太厉害了!楼主,电影应该很好看我觉得蓝光电影网真是个好地方!
回复 支持 反对

使用道具 举报

懒得打字嘛,点击右侧快捷回复 【右侧内容,后台自定义】
您需要登录后才可以回帖 登录 | 立即加入

本版积分规则

Archiver|小黑屋| 蓝光电影网 |网站地图

Copyright © 2021 Comsenz Inc. Powered by 蓝光电影网

蓝光电影网

本站内容由用户自主分享和转载自互联网,转载目的在于传递更多信息,并不代表本网赞同其观点和对其真实性负责。

如有侵权、违反国家法律政策行为,请联系我们,我们会第一时间及时清除和处理!

举报反馈邮箱:[email protected]

快速回复 返回顶部 返回列表